Welcome Guest ( Log In | Register )

> 

Здесь релизы с живыми прямыми ссылками на lossless

> Melancholy Pessimism - Democracy War Crusade (2019), Death Metal/Grindcore
post Jul 1 2019, 17:47:59
Post #1

Правь статус, ####!111
**************
Group: Металариец
Posts: 18,564
Releases: 12552
From: Г.Харьков
On Forums: 7 years 4 months
Thanks: 212775 time(s)
Unknown


(IMG:https://metalarea.org/images/audiocovers/2019_Jul/acov_tid323789_thumb.jpg)

*Artist: Melancholy Pessimism
*Album: Democracy War Crusade
*Year: 2019
*Genre: Death Metal/Grindcore
*Country: Czech Republic (IMG:https://metalarea.org/forum/style_images/flags/Czech%20Republic.png)
*Format: mp3@CBR320kbps
*Size: 105MB

Tracklist:
1. Humanitarian Brutality 04:26
2. Church Revelations 04:17
3. From Battle Screen To Battlefield 04:32
4. Squandered Thirsty Earth 03:53
5. Burning Symbol 03:34
6. Democracy War Crusade 05:29
7. We Are What We Eat 05:34
8. Feel The Crack Of Doom 03:57
9. Give Us Your Blood We Will Give You Freedom 04:02
10. Gender Chaos 04:51
******************************
Total playing time: 44:35




Extended info
Richard Kocourek Bass (1992, 2017-present), Guitars (1993-1996, 2008-2012)
Vlasta Killy Mahdal Vocals (1992-2012, 2017-present)
Mara Drums (2017-present)
See also: Makrab, Spineless Fuckers, Psychopathic Sadism, ex-Disease Enthusiasm, Deep Throat, ex-Mincing Fury and Guttural Clamour of Queer Decay
Miguel Guitars (2017-present)
See also: D.M.C., ex-Shaark


Technical info
(IMG:https://metalarea.org/images/spectrogram/2019_Jul/a9defe012055b65b505eb83ec761e251.png)
Input File: 03 From Battle Screen To Battlefield.mp3
Channels : 2
Sample Rate : 44100
Precision : 16-bit
Duration : 00:04:32.55 = 12019587 samples = 20441.5 CDDA sectors
File Size : 11.1M
Bit Rate : 325k
Sample Encoding: MPEG audio (layer I, II or III)
Comments :
Title=From Battle Screen To Battlefield
Artist=MELANCHOLY PESSIMISM
Album=Democracy War Crusade
Tracknumber=3
Year=2019
Genre=Metal



Register


Go to the top of the page
  Insert nick Quick quote
+Quote Post
 
Start new topic
Replies (1 - 6)
post Jul 1 2019, 19:06:47
Post #2

Правь статус, ####!111
**************
Group: Металариец
Posts: 18,564
Releases: 12552
From: Г.Харьков
On Forums: 7 years 4 months
Thanks: 212775 time(s)
Unknown


Cloud Mail 320
Register


Go to the top of the page
  Insert nick Quick quote
+Quote Post
post Jul 1 2019, 19:38:03
Post #3

Сволочь обыкновенная
**************
Group: Металариец
Posts: 2,520
Releases: 138
From: Брест
On Forums: 11 years 4 months
Thanks: 3236 time(s)
Belarus


Знаем таких, мужики очень заслуженные, но не сильно выдающиеся. Соль земли андеграунда
Go to the top of the page
  Insert nick Quick quote
+Quote Post
post Jul 1 2019, 19:52:10
Post #4

Group: Подсевший
Posts: 15
Releases: 0
On Forums: 2 years 3 months
Thanks: 0 time(s)
Russian Federation


Спасибо за релиз!Не знал что у них выходит новый альбом,очень неожиданно
Go to the top of the page
  Insert nick Quick quote
+Quote Post
post Jul 1 2019, 22:37:33
Post #5

За Русь в метро взорвусь
**************
Group: Металариец
Posts: 2,658
Releases: 2
From: Yaroslavl
On Forums: 3 years 1 week
Thanks: 1586 time(s)
Northern Mariana Islands


Ооо.
Go to the top of the page
  Insert nick Quick quote
+Quote Post
post Jul 2 2019, 11:52:05
Post #6

Маньяк
**********
Group: Металариец
Posts: 1,426
Releases: 0
On Forums: 11 years 7 months
Thanks: 601 time(s)
Russian Federation


Прошлый альбом поинтереснее был, не говоря уж про самый первый
Go to the top of the page
  Insert nick Quick quote
+Quote Post
post Jul 2 2019, 12:41:57
Post #7

Четыре Литра
****
Group: Металариец
Posts: 333
Releases: 0
From: APATIN, SERBIA, АПАТИН, СЕРБИЯ
On Forums: 11 years 10 months
Thanks: 449 time(s)



Flac

Register


Thanks:
(1) artscald,
Go to the top of the page
  Insert nick Quick quote
+Quote Post

Reply to this topicStart new topic
1 User(s) are reading this topic (1 Guests and 0 Anonymous Users)
0 Members:

 



- Lo-Fi Version Support form
Copyrights and abuse reports form
Time is now: 20th September 2019 - 10:32:57