Welcome Guest ( Log In | Register )

> Celestial Grave - Secular Flesh (2019), Black Metal
post Jul 1 2019, 22:21:38
Post #1

𝕻𝕬𝕹𝕬𝕮𝕰𝕬
*******
Group: Металариец
Posts: 712
Releases: 403
On Forums: 7 years 5 months
Thanks: 6195 time(s)
Unknown


(IMG:http://metalarea.org/images/audiocovers/2019_Jul/acov_tid323795_thumb.jpg)

*Artist: Celestial Grave
*Album: Secular Flesh
*Year: 2019
*Genre: Black Metal
*Country: Finland (IMG:http://metalarea.org/forum/style_images/flags/Finland.png)
*Format: mp3@CBR320kbps
*Size: 69MB

Tracklist:
1. Lamentation 06:05
2. Secular Flesh 06:02
3. Gasping From Lips Of Night 08:35
4. Calamitous Love 10:36
******************************
Total playing time: 31:18



Technical info
(IMG:http://metalarea.org/images/spectrogram/2019_Jul/ac05752bf7d7fcbe3a7f200496a03ce3.png)
Input File: 02 - Secular Flesh.mp3
Channels : 2
Sample Rate : 44100
Precision : 16-bit
Duration : 00:06:03.07 = 16011519 samples = 27230.5 CDDA sectors
File Size : 14.5M
Bit Rate : 320k
Sample Encoding: MPEG audio (layer I, II or III)
Comments :
Title=Secular Flesh
Artist=Celestial Grave
Album=Secular Flesh
Tracknumber=2
Year=2019
Genre=Black Metal



Register


Go to the top of the page
  Insert nick Quick quote
+Quote Post
 
Start new topic
Replies (1 - 3)
post Jul 2 2019, 16:07:39
Post #2

Четыре Литра
****
Group: Металариец
Posts: 348
Releases: 0
On Forums: 5 months 1 week
Thanks: 218 time(s)
Russian Federation


Неплохой релиз, особенно последний трек, получившийся достаточно эпичным.
Go to the top of the page
  Insert nick Quick quote
+Quote Post
post Jul 21 2019, 09:53:28
Post #3

Три Литра
***
Group: Завсегдатай
Posts: 297
Releases: 10
On Forums: 12 years 8 months
Thanks: 406 time(s)
French Southern Territories


FLAC anyone please?


Thanks:
Go to the top of the page
  Insert nick Quick quote
+Quote Post
post Sep 12 2019, 10:26:50
Post #4

In Reality Suffer
Group Icon
Group: Moderation team
Posts: 5,575
Releases: 450
From: Iran
On Forums: 10 years 7 months
Thanks: 12931 time(s)
Iran


Lyrics?
Go to the top of the page
  Insert nick Quick quote
+Quote Post

Reply to this topicStart new topic
2 User(s) are reading this topic (2 Guests and 0 Anonymous Users)
0 Members:

 



- Lo-Fi Version Support form
Copyrights and abuse reports form
Time is now: 20th November 2019 - 23:18:26