Welcome Guest ( Log In | Register )

> Engine Driven Cultivators - Insert Coin (2019), Thrash Metal
post Jul 2 2019, 05:28:53
Post #1

Правь статус, ####!111
**************
Group: Металариец
Posts: 25,773
Releases: 18452
From: Г.Харьков
On Forums: 8 years 11 months
Thanks: 364221 time(s)
Unknown


(IMG:https://metalarea.org/images/audiocovers/2019_Jul/acov_tid323798_thumb.jpg)

*Artist: Engine Driven Cultivators
*Album: Insert Coin
*Year: 2019
*Genre: Thrash Metal
*Country: Italy (IMG:https://metalarea.org/forum/style_images/flags/Italy.png)
*Format: mp3@CBR320kbps
*Size: 86MB

Tracklist:
1. Throne of the Slapsticks 02:26
2. B.O.P.E 02:58
3. Eschaton 04:18
4. Red Striped Police 03:02
5. Purge the Greed of Fear 04:24
6. Stop that Gorilla 02:48
7. Dual Strike 03:52
8. Toxic Protocol 05:06
9. Leap Out 03:12
10. Skids and Brew 02:44
******************************
Total playing time: 34:50




Extended info
Mattia Tibuzzi Bass
Jacopo Bassi Drums
Daniele Ricci Guitars
Adriano Angeli Guitars
Alessandro "Maraccio" Giorgi Vocals


Technical info
(IMG:https://metalarea.org/images/spectrogram/2019_Jul/ca5c58db7e9863a35a7098ac8ec20871.png)
Input File: 03 - Eschaton.mp3
Channels : 2
Sample Rate : 44100
Precision : 16-bit
Duration : 00:04:18.08 = 11381372 samples = 19356.1 CDDA sectors
File Size : 11.0M
Bit Rate : 340k
Sample Encoding: MPEG audio (layer I, II or III)
Comments :
Title=Eschaton
Artist=Engine Driven Cultivators
Album=Insert Coin
Tracknumber=3
Year=2019
Genre=Thrash Metal
Discnumber=1



Register


Go to the top of the page
  Insert nick Quick quote
+Quote Post
 
Start new topic
Replies (1 - 2)
post Jul 2 2019, 08:06:44
Post #2

Правь статус, ####!111
**************
Group: Металариец
Posts: 25,773
Releases: 18452
From: Г.Харьков
On Forums: 8 years 11 months
Thanks: 364221 time(s)
Unknown


Cloud Mail 320
Register


Thanks:
(1) older68,
Go to the top of the page
  Insert nick Quick quote
+Quote Post
post Jul 2 2019, 09:35:43
Post #3

Dr.
**************
Group: Металариец
Posts: 5,331
Releases: 0
From: Primorye.ru
On Forums: 10 years 3 weeks
Thanks: 1107 time(s)
Russian Federation


+
Engine Driven Cultivators- Rattletrap(2005)
Engine Driven Cultivators - Helly Gator(2009)
Engine Driven Cultivators - Back From The Drainpipe(2011)

(IMG:style_emoticons/default/metaler.gif)


Thanks:
Go to the top of the page
  Insert nick Quick quote
+Quote Post

Reply to this topicStart new topic
2 User(s) are reading this topic (2 Guests and 0 Anonymous Users)
0 Members:

 



- Lo-Fi Version Support form
Copyrights and abuse reports form
Time is now: 18th April 2021 - 01:20:20