Welcome Guest ( Log In | Register )

> Razorblades Terror - Return Of The Crown (2019), Technical Death Metal
post Jul 3 2019, 10:12:45
Post #1

Правь статус, ####!111
**************
Group: Металариец
Posts: 21,302
Releases: 14576
From: Г.Харьков
On Forums: 7 years 10 months
Thanks: 260373 time(s)
Unknown


(IMG:https://metalarea.org/images/audiocovers/2019_Jul/acov_tid323846_thumb.jpg)

*Artist: Razorblades Terror
*Album: Return Of The Crown
*Year: 2019
*Genre: Technical Death Metal
*Country: Indonesia (IMG:https://metalarea.org/forum/style_images/flags/Indonesia.png)
*Format: mp3@CBR320kbps
*Size: 86MB

Tracklist:
01. Binary of Gold
02. Suckcial Media
03. Racism Culture
04. Saliva Dealer
05. Corps of Robot
06. Savior of God
07. Particle of Throne
08. Death Prophercy
09. Candle Philosophy
10. Outro the Crown
******************************
Total playing time: 35:50



Extended info
есть вероятность что альбом 2018 года,хотя на цифре появился только сегодня
Borky Bass
Fafa Drums
Dwy Guitars
Tom Vocals



Technical info
(IMG:https://metalarea.org/images/spectrogram/2019_Jul/7d3f2b4ce7642e14f894354fa63b6074.png)
Input File: 03. Racism Culture.mp3
Channels : 2
Sample Rate : 44100
Precision : 16-bit
Duration : 00:04:28.09 = 11822593 samples = 20106.5 CDDA sectors
File Size : 11.2M
Bit Rate : 336k
Sample Encoding: MPEG audio (layer I, II or III)
Comments :
Title=Racism Culture
Artist=Razorblades Terror
Album=Return of the Crown
Tracknumber=3/10
Year=2019



Register


Go to the top of the page
  Insert nick Quick quote
+Quote Post
 
Start new topic
Replies (1 - 8)
post Jul 3 2019, 12:26:25
Post #2

тебе 29, а ты все реверсами балуешься
***********
Group: Металариец
Posts: 1,905
Releases: 4
On Forums: 11 years 8 months
Thanks: 628 time(s)
Russian Federation


Звук-жърчик, переливы, клавишки - найс! (IMG:style_emoticons/default/20.gif)
Go to the top of the page
  Insert nick Quick quote
+Quote Post
post Jul 3 2019, 13:56:29
Post #3

Литр
*
Group: Подсевший
Posts: 69
Releases: 0
On Forums: 5 years 1 month
Thanks: 33 time(s)
Unknown


Кто за тобой гонится который день? Транскод.
Go to the top of the page
  Insert nick Quick quote
+Quote Post
post Jul 3 2019, 15:22:07
Post #4

hearer & reader
**************
Group: Металариец
Posts: 8,518
Releases: 131
From: Moscow
On Forums: 12 years 7 months
Thanks: 8381 time(s)
Russian Federation


Так это на Амазоне такой рип?
Go to the top of the page
  Insert nick Quick quote
+Quote Post
post Jul 3 2019, 15:46:25
Post #5

Правь статус, ####!111
**************
Group: Металариец
Posts: 21,302
Releases: 14576
From: Г.Харьков
On Forums: 7 years 10 months
Thanks: 260373 time(s)
Unknown


ЦИТАТА(AHBAnep @ 3rd July 2019 - 15:22:07) *
Так это на Амазоне такой рип?

на всей цифре одинаковые спектры-GooglePlay,Deeser,iTunes,Amazon,Spotify..


Thanks:
(1) AHBAnep,
Go to the top of the page
  Insert nick Quick quote
+Quote Post
post Jul 4 2019, 10:41:53
Post #6

Два Литра
**
Group: Завсегдатай
Posts: 139
Releases: 0
From: TheМля
On Forums: 13 years 6 months
Thanks: 53 time(s)
Belarus


Настоящий транскод, срез на 16KHz (IMG:style_emoticons/default/6.gif)
Go to the top of the page
  Insert nick Quick quote
+Quote Post
post Jul 11 2019, 19:44:57
Post #7

Литр
*
Group: Подсевший
Posts: 92
Releases: 0
On Forums: 11 years 10 months
Thanks: 17 time(s)
Russian Federation


фоном шикарно идёт!!! солячёк "душит" прямо шикарно (IMG:style_emoticons/default/pray.gif)
Go to the top of the page
  Insert nick Quick quote
+Quote Post
post Jul 13 2019, 18:15:29
Post #8

Сектант технодро4чер
**************
Group: Металариец
Posts: 5,517
Releases: 143
From: Тимчасово окупована територія
On Forums: 11 years 7 months
Thanks: 5806 time(s)
Ukraine


Умелые "спортсмены" - одобрямс (IMG:style_emoticons/default/9.gif)
Go to the top of the page
  Insert nick Quick quote
+Quote Post
post Jul 17 2019, 21:43:13
Post #9

Schuldinerist
**************
Group: Металариец
Posts: 10,527
Releases: 33
From:
On Forums: 12 years 11 months
Thanks: 6731 time(s)
Russian Federation


умелые "спортсмены" - таких не мало
7-8/10


Thanks:
(1) Metalass,
Go to the top of the page
  Insert nick Quick quote
+Quote Post

Reply to this topicStart new topic
1 User(s) are reading this topic (1 Guests and 0 Anonymous Users)
0 Members:

 



- Lo-Fi Version Support form
Copyrights and abuse reports form
Time is now: 7th April 2020 - 21:19:55