Welcome Guest ( Log In | Register )

> Dream Void - Divinization (2019), Technical Death Metal/Deathcore
post Jul 4 2019, 08:39:38
Post #1

Cultist
**************
Group: Металариец
Posts: 4,279
Releases: 1330
From: Koenigsberg
On Forums: 13 years 1 month
Thanks: 8681 time(s)
Russian Federation


(IMG:http://metalarea.org/images/audiocovers/2019_Jul/acov_tid323904_thumb.jpg)

*Artist: Dream Void
*Album: Divinization
*Year: 2019
*Genre: Technical Death Metal/Deathcore
*Country: United States (IMG:http://metalarea.org/forum/style_images/flags/United%20States.png)
*Format: mp3@CBR320kbps
*Size: 51MB

Tracklist:
1. Believing the Lie 4:13
2. The Charlatan's Lantern 5:40
3. Immuration 3:17
4. The Curtain Drawn 4:29
5. Permeation 3:55
******************************
Total playing time: 21:34



Extended info
Средней руки ТДМ
Кора особого не завезли


Technical info
(IMG:http://metalarea.org/images/spectrogram/2019_Jul/e6cf8a8f30d16a4446c951dabef71338.png)
Input File: 04 - The Curtain Drawn.mp3
Channels : 2
Sample Rate : 44100
Precision : 16-bit
Duration : 00:04:28.84 = 11856020 samples = 20163.3 CDDA sectors
File Size : 11.1M
Bit Rate : 330k
Sample Encoding: MPEG audio (layer I, II or III)
Comments :
Title=The Curtain Drawn
Artist=Dream Void
Album=Divinization
Tracknumber=4
Year=2019
Genre=Technical Death Metal/Deathcore



Register


Go to the top of the page
  Insert nick Quick quote
+Quote Post
 
Start new topic
Replies (1 - 1)
post Jan 14 2020, 19:08:32
Post #2

Правь статус, ####!111
**************
Group: Металариец
Posts: 3,750
Releases: 11
From: Москва и МО
On Forums: 13 years 7 months
Thanks: 1015 time(s)
Russian Federation


Приз за лучшую имитацию Fallujah достается группе Dream Void за их песню Permeation.
В остальном хороший слушабельный тех дэт(кор), но ультра короткий.
Go to the top of the page
  Insert nick Quick quote
+Quote Post

Reply to this topicStart new topic
1 User(s) are reading this topic (1 Guests and 0 Anonymous Users)
0 Members:

 



- Lo-Fi Version Support form
Copyrights and abuse reports form
Time is now: 17th February 2020 - 04:38:33