Welcome Guest ( Log In | Register )

> Abbath - Outstrider (2019), Black Metal
post Jul 4 2019, 11:14:28
Post #1

Serial Uploader
Group Icon
Group: V.I.P
Posts: 36,427
Releases: 34613
From: Lithuania
On Forums: 11 years 5 months
Thanks: 404216 time(s)
Lithuania


(IMG:https://metalarea.org/images/audiocovers/2019_Jul/acov_tid323919_thumb.jpg)

*Artist: Abbath
*Album: Outstrider
*Year: 2019
*Genre: Black Metal
*Country: Norway (IMG:https://metalarea.org/forum/style_images/flags/Norway.png)
*Format: mp3@CBR320kbps
*Size: 89MB

Tracklist:
01. Calm in Ire (Of Hurricane) 04:32
02. Bridge of Spasms 03:49
03. The Artifex 04:09
04. Harvest Pyre 04:12
05. Land of Khem 04:08
06. Outstrider 05:39
07. Scythewinder 04:17
08. Hecate 04:25
09. Pace 'till Death (Bathory cover) 03:41
******************************
Total playing time: 38:52



(IMG:https://metalarea.org/images/youtube.png)

Technical info
(IMG:https://metalarea.org/images/spectrogram/2019_Jul/e81a7e1472d77bf70fb83f4cc798f25e.png)
Input File: 2 - Bridge of Spasms.mp3
Channels : 2
Sample Rate : 44100
Precision : 16-bit
Duration : 00:03:48.53 = 10078217 samples = 17139.8 CDDA sectors
File Size : 9.20M
Bit Rate : 322k
Sample Encoding: MPEG audio (layer I, II or III)
Comments :
Title=Bridge of Spasms
Artist=Abbath
Album=Outstrider
Tracknumber=2
Year=2019
Genre=Metal
Discnumber=1



Register


Go to the top of the page
  Insert nick Quick quote
+Quote Post
2 Pages V  < 1 2  
Start new topic
Replies (30 - 37)
post Jul 24 2019, 17:10:20
Post #31

:3
**************
Group: Металариец
Posts: 4,491
Releases: 103
From: Novosibirsk
On Forums: 12 years 1 month
Thanks: 3636 time(s)
Russian Federation


Аббат мощнейшие риффы в Иммортале выдавал - самому облегчиться можно было при прослушивании. А теперь выходит, что он облегчается слушателю в уши.


Go to the top of the page
  Insert nick Quick quote
+Quote Post
post Jul 24 2019, 23:17:34
Post #32

Правь статус, ####!111
**************
Group: Металариец
Posts: 3,639
Releases: 11
From: Москва и МО
On Forums: 13 years 4 months
Thanks: 949 time(s)
Russian Federation


Нормальный обычный альбом Аббатушки. Где-то можно потрясти башкой, а в прочем вполне можно и пройти мимо.
Для core фанов (собственно, поэтому я разков 10 и послушал).
Go to the top of the page
  Insert nick Quick quote
+Quote Post
post Aug 22 2019, 20:37:04
Post #33

спиногрыз-кровосос
****
Group: Металариец
Posts: 388
Releases: 0
On Forums: 10 years 9 months
Thanks: 63 time(s)
Russian Federation


послушал наконец-то. фигня полная(( иммортал нормально зашел
Go to the top of the page
  Insert nick Quick quote
+Quote Post
post Aug 22 2019, 21:54:29
Post #34

балабол
***********
Group: Металариец
Posts: 1,544
Releases: 1
On Forums: 8 years 7 months
Thanks: 1231 time(s)
Russian Federation


Даже качать не надо, фуфлом полнейшим и так веет на интуитивном уровне. Как и Имортал последний.


Go to the top of the page
  Insert nick Quick quote
+Quote Post
post Sep 15 2019, 11:14:34
Post #35

for me your flesh
********
Group: Металариец
Posts: 876
Releases: 0
On Forums: 2 years 3 months
Thanks: 672 time(s)
Unknown


ЦИТАТА(Shub @ Jul 24 2019, 19:10:20) *
Аббат мощнейшие риффы в Иммортале выдавал - самому облегчиться можно было при прослушивании. А теперь выходит, что он облегчается слушателю в уши.

Действительно! Слушатель добросовестно скачивает, а он подлец облегчается (IMG:style_emoticons/default/14.gif)
Go to the top of the page
  Insert nick Quick quote
+Quote Post
post Sep 25 2019, 18:01:53
Post #36

Full-of-Hate
**************
Group: Металариец
Posts: 3,269
Releases: 0
From: Moscow
On Forums: 10 years 4 months
Thanks: 2832 time(s)
Russian Federation


Go to the top of the page
  Insert nick Quick quote
+Quote Post
post Sep 25 2019, 18:18:27
Post #37


**************
Group: Металариец
Posts: 2,111
Releases: 14
From: Казань
On Forums: 10 years 1 month
Thanks: 2793 time(s)
Russian Federation


Мне кажется, через года три Абат смоет грим и станет нормальным олдовым дядькой с пинтой пива и двумя белокурыми байкершами. Они будут задорно смеяться на опен фестах, куда будет приезжать Абат в качестве почетного гостя под аккомпанемент самого себя. Мне почему то все хочется назвать его Абаж, как из сказки королевство кривых зеркал (IMG:style_emoticons/default/1488.gif)


Thanks:
Go to the top of the page
  Insert nick Quick quote
+Quote Post
post Sep 26 2019, 22:19:31
Post #38

Маньяк
**********
Group: Металариец
Posts: 1,197
Releases: 1
On Forums: 5 years 2 weeks
Thanks: 421 time(s)
Tajikistan


Go to the top of the page
  Insert nick Quick quote
+Quote Post

2 Pages V  < 1 2
Reply to this topicStart new topic
2 User(s) are reading this topic (2 Guests and 0 Anonymous Users)
0 Members:

 



- Lo-Fi Version Support form
Copyrights and abuse reports form
Time is now: 12th November 2019 - 21:54:04