Welcome Guest ( Log In | Register )

> Wandar - Zyklus (2019), Black Metal
post Jul 5 2019, 06:17:15
Post #1

Правь статус, ####!111
**************
Group: Металариец
Posts: 19,828
Releases: 13456
From: Г.Харьков
On Forums: 7 years 7 months
Thanks: 232700 time(s)
Unknown


(IMG:https://metalarea.org/images/audiocovers/2019_Jul/acov_tid323953_thumb.jpg)

*Artist: Wandar
*Album: Zyklus
*Year: 2019
*Genre: Black Metal
*Country: Germany (IMG:https://metalarea.org/forum/style_images/flags/Germany.png)
*Format: mp3@CBR320kbps
*Size: 122MB

Tracklist:
1. Winden
2. Tothfall
3. Fylgia
4. Rast
5. Se(e)hen
6. Heimgang
7. Basalt
******************************
Total playing time: 53:08




Extended info
Sigurdur Bass
Westram Guitars
Zazhgul Guitars
Skoll von Kallenheim Vocals
See also: Idhafels, Insomnia Astrorum, ex-Haradwaith, ex-Neun Welten
Totz Drums (2013-present)
See also: ex-Into Obscurity, ex-Wasted Future, ex-Zum Baischpiel



Technical info
(IMG:https://metalarea.org/images/spectrogram/2019_Jul/529c2ce62c78efc6f53c2c184721e21f.png)
Input File: 03. Fylgia.mp3
Channels : 2
Sample Rate : 44100
Precision : 16-bit
Duration : 00:08:29.63 = 22474595 samples = 38222.1 CDDA sectors
File Size : 20.4M
Bit Rate : 320k
Sample Encoding: MPEG audio (layer I, II or III)
Comments :
Title=Fylgia
Artist=Wandar
Album=Zyklus
Tracknumber=3
Year=2019-19-20
Discnumber=1



Register


Go to the top of the page
  Insert nick Quick quote
+Quote Post
 
Start new topic
Replies (1 - 6)
post Jul 9 2019, 23:55:29
Post #2

Zero Tolerance
**
Group: Завсегдатай
Posts: 176
Releases: 0
On Forums: 7 years 2 months
Thanks: 25 time(s)
Unknown


Без особых изысков атмоблэк. Но присутствует неудержимое желание переслушивать вновь и вновь. Завораживающую атмосферу накрутила немчура в этой работе.
Go to the top of the page
  Insert nick Quick quote
+Quote Post
post Jul 16 2019, 04:00:53
Post #3

Правь статус, ####!111
**************
Group: Металариец
Posts: 4,054
Releases: 1038
From: Brazil
On Forums: 7 years 10 months
Thanks: 38552 time(s)
Brazil


Register


Thanks:
Go to the top of the page
  Insert nick Quick quote
+Quote Post
post Jul 16 2019, 18:19:26
Post #4

Два Литра
**
Group: Завсегдатай
Posts: 188
Releases: 0
From: Лыткарино
On Forums: 7 months 1 day
Thanks: 44 time(s)
Russian Federation


Хороший альбом, приятно слушается)
Go to the top of the page
  Insert nick Quick quote
+Quote Post
post Jul 16 2019, 19:19:41
Post #5

Трезвый мастер
Group Icon
Group: Curation team
Posts: 3,771
Releases: 0
On Forums: 9 years 5 months
Thanks: 1521 time(s)
Russian Federation


Первый раз прочитал как "Вандам" (IMG:style_emoticons/default/1488.gif)
Go to the top of the page
  Insert nick Quick quote
+Quote Post
post Aug 13 2019, 10:49:33
Post #6

Пусто
***********
Group: Металариец
Posts: 1,519
Releases: 27
From: Санкт-Петербург
On Forums: 12 years 11 months
Thanks: 1455 time(s)
Russian Federation


один из лучших релизов года (IMG:style_emoticons/default/pray.gif)
хорошо постарались за 7 лет


Thanks:
(1) Baarin,
Go to the top of the page
  Insert nick Quick quote
+Quote Post
post Sep 6 2019, 20:01:31
Post #7

Два Литра
**
Group: Завсегдатай
Posts: 122
Releases: 0
On Forums: 3 years 3 months
Thanks: 11 time(s)
Unknown


в хорошем качестве

Register
Go to the top of the page
  Insert nick Quick quote
+Quote Post

Reply to this topicStart new topic
1 User(s) are reading this topic (1 Guests and 0 Anonymous Users)
0 Members:

 



- Lo-Fi Version Support form
Copyrights and abuse reports form
Time is now: 11th December 2019 - 23:08:45