Welcome Guest ( Log In | Register )

> Trend Kill Ghosts - Kill Your Ghosts (2019), Power Metal
post Jul 5 2019, 06:41:36
Post #1

Правь статус, ####!111
**************
Group: Металариец
Posts: 25,808
Releases: 18479
From: Г.Харьков
On Forums: 8 years 11 months
Thanks: 365083 time(s)
Unknown


(IMG:https://metalarea.org/images/audiocovers/2019_Jul/acov_tid323954_thumb.jpg)

*Artist: Trend Kill Ghosts
*Album: Kill Your Ghosts
*Year: 2019
*Genre: Power Metal
*Country: Brazil (IMG:https://metalarea.org/forum/style_images/flags/Brazil.png)
*Format: mp3@CBR320kbps
*Size: 96MB

Tracklist:
01. Prelude
02. Like Animals
03. Fight
04. Living a Lie
05. Deceivers
06. Ghost's Revolution
07. Promise
08. Frozen
09. Believe
******************************
Total playing time: 41:38

(IMG:https://metalarea.org/images/youtube.png)
(IMG:https://metalarea.org/images/youtube.png)

Technical info
(IMG:https://metalarea.org/images/spectrogram/2019_Jul/1eb203bf5b0ecaa9f8f0a59f70423c8a.png)
Input File: 04. Living a Lie.mp3
Channels : 2
Sample Rate : 44100
Precision : 16-bit
Duration : 00:05:22.08 = 14203904 samples = 24156.3 CDDA sectors
File Size : 13.0M
Bit Rate : 323k
Sample Encoding: MPEG audio (layer I, II or III)
Comments :
Title=Living a Lie
Artist=Trend Kill Ghosts
Album=Kill Your Ghosts
Tracknumber=4
Year=2019-19-20
Discnumber=1



Register


Go to the top of the page
  Insert nick Quick quote
+Quote Post
 
Start new topic
Replies (1 - 2)
post Jul 5 2019, 14:32:07
Post #2

Два Литра
**
Group: Завсегдатай
Posts: 151
Releases: 0
On Forums: 13 years 3 months
Thanks: 17 time(s)
Russian Federation


https://www.youtube.com/watch?v=AIKwLkxJ_to


Thanks:
(1) Herrant,
Go to the top of the page
  Insert nick Quick quote
+Quote Post
post Jul 7 2019, 03:18:12
Post #3

Два Литра
**
Group: Завсегдатай
Posts: 172
Releases: 3
On Forums: 15 years 3 weeks
Thanks: 79 time(s)
Russian Federation


Не хватает мощи.
Обложка зачетная.
Go to the top of the page
  Insert nick Quick quote
+Quote Post

Reply to this topicStart new topic
2 User(s) are reading this topic (2 Guests and 0 Anonymous Users)
0 Members:

 



- Lo-Fi Version Support form
Copyrights and abuse reports form
Time is now: 21st April 2021 - 14:38:46