Welcome Guest ( Log In | Register )

> Inhuman Depravation - Cannibalistic Extinction (2019), Brutal Death Metal
post Jul 5 2019, 19:05:06
Post #1

Правь статус, ####!111
**************
Group: Металариец
Posts: 21,963
Releases: 15155
From: Г.Харьков
On Forums: 8 years 3 weeks
Thanks: 275106 time(s)
Unknown


(IMG:https://metalarea.org/images/audiocovers/2019_Jul/acov_tid323981_thumb.jpg)

*Artist: Inhuman Depravation
*Album: Cannibalistic Extinction
*Year: 2019
*Genre: Brutal Death Metal
*Country: Spain (IMG:https://metalarea.org/forum/style_images/flags/Spain.png)
*Format: mp3@CBR320kbps
*Size: 60MB

Tracklist:
01. Infamous
02. Sick
03. Dying
04. Exorcism
05. Anguish
06. Virulent
07. Antropophage
08. Desecration
09. Agonies
10. Infected
******************************
Total playing time: 25:35



Extended info
One man band


Technical info
(IMG:https://metalarea.org/images/spectrogram/2019_Jul/fd30bdcf018cf22d5c91e69388815648.png)
Input File: 05. ANGUISH.mp3
Channels : 2
Sample Rate : 44100
Precision : 16-bit
Duration : 00:02:18.07 = 6088755 samples = 10355 CDDA sectors
File Size : 5.72M
Bit Rate : 331k
Sample Encoding: MPEG audio (layer I, II or III)
Comments :
Title=ANGUISH
Artist=Inhuman Depravation
Album=Cannibalistic Extinction
Tracknumber=5
Year=2019



Register


Go to the top of the page
  Insert nick Quick quote
+Quote Post
 
Start new topic
Replies (1 - 1)
post Jul 7 2019, 09:02:26
Post #2

Шесть Литров
******
Group: Металариец
Posts: 600
Releases: 0
From: APATIN, SERBIA, АПАТИН, СЕРБИЯ
On Forums: 12 years 7 months
Thanks: 929 time(s)



Flac

Register
Go to the top of the page
  Insert nick Quick quote
+Quote Post

Reply to this topicStart new topic
1 User(s) are reading this topic (1 Guests and 0 Anonymous Users)
0 Members:

 



- Lo-Fi Version Support form
Copyrights and abuse reports form
Time is now: 5th June 2020 - 20:08:11