Welcome Guest ( Log In | Register )

> Forces United - Egorov 2 - Любить Дракона (2019), Power Metal
post Jul 6 2019, 09:25:30
Post #1

Cultist
**************
Group: Металариец
Posts: 4,288
Releases: 1331
From: Koenigsberg
On Forums: 13 years 6 months
Thanks: 8821 time(s)
Russian Federation


(IMG:http://metalarea.org/images/audiocovers/2019_Jul/acov_tid324014_thumb.jpg)

*Artist: Forces United
*Album: Egorov 2 - Любить Дракона
*Year: 2019
*Genre: Power Metal
*Country: Russian Federation (IMG:http://metalarea.org/forum/style_images/flags/Russian%20Federation.png)
*Format: mp3@CBR320kbps
*Size: 238MB

Tracklist:
CD1: Любить Дракона
01. Light and Darkness 4:10
02. Гастрольная 3:15
03. Utopia 4:16
04. Убить дракона 4:17
05. Любить дракона 3:49
06. Another Level 3:39
07. Леонардо 3:37
08. Life You Have to Live 5:35
09. Война миров 4:11
10. Был тогда другим наш мир... 4:55
11. Кто мы? 4:16
12. Гагарин (MIX2019) 4:36
13. День рождения 4:11

CD2:EgorOFF
01. Beckoning Heig 3:32
02. Lie 3:52
03. Facing the Storm 3:22
04. Father to Son 2:47
05. Take a Breath 4:08
06. Counting Numbers 2:04
07. The Circle of Hurt 3:19
08. The Vow 3:45
09. Special 3:28
10. The Voice 4:04
******************************
Total playing time: 1:29:08

Technical info
(IMG:http://metalarea.org/images/spectrogram/2019_Jul/afc30c51d69c6b3891ec550159212207.png)
Input File: 05 - Любить Дракона.mp3
Channels : 2
Sample Rate : 44100
Precision : 16-bit
Duration : 00:03:48.93 = 10095637 samples = 17169.5 CDDA sectors
File Size : 9.16M
Bit Rate : 320k
Sample Encoding: MPEG audio (layer I, II or III)
Comments :
Title=Любить Дракона
Artist=Forces United
Album=Любить Дракона
Tracknumber=5
Year=2019
Genre=Power Metal



Register


Go to the top of the page
  Insert nick Quick quote
+Quote Post
 
Start new topic
Replies (1 - 7)
post Jul 7 2019, 00:23:30
Post #2

Литр
*
Group: Подсевший
Posts: 77
Releases: 0
On Forums: 5 years 4 months
Thanks: 39 time(s)
Unknown


ЦИТАТА(TDM @ 6th July 2019 - 09:25:30) *
- Egorov 2 -

Откуда двойка-то взялась? на обложке нету. )
Go to the top of the page
  Insert nick Quick quote
+Quote Post
post Jul 7 2019, 07:07:22
Post #3

زرنيخ
**************
Group: Металариец
Posts: 2,191
Releases: 3
From: Санкт-Петербург
On Forums: 5 years 3 months
Thanks: 2687 time(s)
Russian Federation


Лучше бы «Судный день» залил.
Go to the top of the page
  Insert nick Quick quote
+Quote Post
post Jul 7 2019, 17:32:34
Post #4

Социопат.Маргинал. Мизантроп.Нигилист. Перверзный нарциссист.
**************
Group: Металариец
Posts: 5,570
Releases: 667
From: Город-герой Ленинград
On Forums: 9 years 5 months
Thanks: 6419 time(s)
Russian Federation


ЦИТАТА(TDM @ 6th July 2019 - 09:25:30) *
04. Убить дракона 4:17
05. Любить дракона 3:49
Прям по грайнду.


Thanks:
Go to the top of the page
  Insert nick Quick quote
+Quote Post
post Jul 7 2019, 18:22:55
Post #5

...
**************
Group: Металариец
Posts: 4,927
Releases: 512
From: МОРсквы
On Forums: 13 years 9 months
Thanks: 7564 time(s)
Russian Federation


ЦИТАТА(Герб @ 7th July 2019 - 19:32:34) *
ЦИТАТА(TDM @ 6th July 2019 - 09:25:30) 04. Убить дракона 4:17 05. Любить дракона 3:49Прям по грайнду.

по горграйнду!
Go to the top of the page
  Insert nick Quick quote
+Quote Post
post Jul 7 2019, 21:17:35
Post #6

Наливай!
**************
Group: Металариец
Posts: 5,776
Releases: 27
From: Москва-Бибирево
On Forums: 12 years 3 months
Thanks: 2918 time(s)
Russian Federation


(IMG:style_emoticons/default/hmm.gif)
ЦИТАТА(Arseniy @ Jul 7 2019, 09:07:22) *
Лучше бы «Судный день» залил.

Go to the top of the page
  Insert nick Quick quote
+Quote Post
post Jul 7 2019, 22:02:53
Post #7

Три Литра
***
Group: Завсегдатай
Posts: 263
Releases: 1
On Forums: 2 years 1 month
Thanks: 183 time(s)
Russian Federation


Какая мерзость, прости господи. Ещё кто-то донатит на подобные "релизы".
Go to the top of the page
  Insert nick Quick quote
+Quote Post
post Jul 8 2019, 06:56:39
Post #8

Grind the Human Scum
**********
Group: Металариец
Posts: 1,026
Releases: 18
On Forums: 13 years 6 months
Thanks: 980 time(s)
Russian Federation


ЦИТАТА(Slam91 @ Jul 8 2019, 00:02:53) *
Какая мерзость, прости господи. Ещё кто-то донатит на подобные "релизы".

И не говори. по слухам, там была хитрооппая акция, по которой, донатя на это, получаешь две свежие Ип-шки бони нема. многие любители металлического шлягера повелись на эту авантюру. кругом наедалово. расход
Go to the top of the page
  Insert nick Quick quote
+Quote Post

Reply to this topicStart new topic
1 User(s) are reading this topic (1 Guests and 0 Anonymous Users)
0 Members:

 



- Lo-Fi Version Support form
Copyrights and abuse reports form
Time is now: 9th July 2020 - 03:40:35