Welcome Guest ( Log In | Register )

> Anal Slave Of Satan - A.S.S. (2019), Blackened Thrash/Speed Metal
post Jul 7 2019, 07:50:16
Post #1

Правь статус, ####!111
**************
Group: Металариец
Posts: 20,313
Releases: 13848
From: Г.Харьков
On Forums: 7 years 8 months
Thanks: 242382 time(s)
Unknown


(IMG:https://metalarea.org/images/audiocovers/2019_Jul/acov_tid324038_thumb.jpg)

*Artist: Anal Slave Of Satan
*Album: A.S.S.
*Year: 2019
*Genre: Blackened Thrash/Speed Metal
*Country: Italy (IMG:https://metalarea.org/forum/style_images/flags/Italy.png)
*Format: mp3@CBR320kbps
*Size: 57MB

Tracklist:
01. Intro
02. Delta 9
03. Desolate Void Remains
04. Virgin's Sacrifice
05. Rave the Church
06. A.S.S.
07. Messiah's Funeral
08. Sadus Attack
09. S.S. (Speed Schizo)
10. Infernal Vision
11. Outro
******************************
Total playing time: 24:26



Extended info
Paco Bass (2016-present)
See also: Rejekts
Peppe Drums (2016-present)
Alci Vocals, Guitars (2016-present)
See also: ex-Rats of Society


Technical info
(IMG:https://metalarea.org/images/spectrogram/2019_Jul/56f62d4e01bb2068d808928fa804b0ac.png)
Input File: 04. Virgin\'s Sacrifice.mp3
Channels : 2
Sample Rate : 44100
Precision : 16-bit
Duration : 00:03:41.43 = 9765019 samples = 16607.2 CDDA sectors
File Size : 8.95M
Bit Rate : 323k
Sample Encoding: MPEG audio (layer I, II or III)
Comments :
Title=Virgin's Sacrifice
Artist=A.S.S.
Album=Anal Slave of Satan
Tracknumber=4
Year=2019-19-20
Discnumber=1



Register


Go to the top of the page
  Insert nick Quick quote
+Quote Post
 
Start new topic
Replies (1 - 4)
post Jul 8 2019, 17:32:08
Post #2

Три Литра
***
Group: Завсегдатай
Posts: 282
Releases: 0
From: Kyiv
On Forums: 7 years 9 months
Thanks: 110 time(s)
Ukraine


Аж странно. Норм валят.


Thanks:
Go to the top of the page
  Insert nick Quick quote
+Quote Post
post Jul 8 2019, 18:02:54
Post #3

Правь статус, ####!111
**************
Group: Металариец
Posts: 2,813
Releases: 8
From: Dnipro
On Forums: 11 years 6 months
Thanks: 891 time(s)
Ukraine


Анальный раб Сатаны!!! (IMG:style_emoticons/default/1488.gif)
Go to the top of the page
  Insert nick Quick quote
+Quote Post
post Jul 9 2019, 16:00:55
Post #4

Два Литра
**
Group: Завсегдатай
Posts: 186
Releases: 0
On Forums: 7 months 3 weeks
Thanks: 87 time(s)
Unknown


Несмотря на откровенно грайндкоровое название, музыкально здесь все весьма не дурно - задорно, угарно и башкотрясно (IMG:style_emoticons/default/metaler.gif)


Thanks:
Go to the top of the page
  Insert nick Quick quote
+Quote Post
post Jul 10 2019, 13:13:00
Post #5

South Of Heaven /адепт ВУДУ
**************
Group: Металариец
Posts: 13,960
Releases: 9
On Forums: 9 years 9 months
Thanks: 5320 time(s)
Unknown


Название огонь конечно (IMG:style_emoticons/default/25.gif)

А так да, по канонам олдскула всё и в рамках приличия)


Thanks:
Go to the top of the page
  Insert nick Quick quote
+Quote Post

Reply to this topicStart new topic
2 User(s) are reading this topic (2 Guests and 0 Anonymous Users)
0 Members:

 



- Lo-Fi Version Support form
Copyrights and abuse reports form
Time is now: 24th January 2020 - 06:54:11