Welcome Guest ( Log In | Register )

> Mathusalem - Cursed Garden (2015), Stoner/Doom Metal
post Jul 8 2019, 22:00:01
Post #1

Group: Дух
Posts: 10
Releases: 5
On Forums: 6 years 3 months
Thanks: 54 time(s)
Colombia


(IMG:http://metalarea.org/images/audiocovers/2019_Jul/acov_tid324103_thumb.jpg)

*Artist: Mathusalem
*Album: Cursed Garden
*Year: 2015
*Genre: Stoner/Doom Metal
*Country: France (IMG:http://metalarea.org/forum/style_images/flags/France.png)
*Format: mp3@CBR128kbps (IMG:http://metalarea.org/images/bit_low.gif)
*Size: 41MB

Tracklist:
1. Cursed Garden 17:12
2. Mavericks 06:34
3. Green Water 02:51
4. Holy Grass 13:36
5. Deep 04:11
******************************
Total playing time: 44:24

(IMG:http://metalarea.org/images/youtube.png)
(IMG:http://metalarea.org/images/youtube.png)

Technical info
(IMG:http://metalarea.org/images/spectrogram/2019_Jul/59b587f37aadbaf6569c96e3aeb3b44e.png)
Input File: 05 - Deep.mp3
Channels : 2
Sample Rate : 44100
Precision : 16-bit
Duration : 00:04:11.90 = 11108614 samples = 18892.2 CDDA sectors
File Size : 4.03M
Bit Rate : 128k
Sample Encoding: MPEG audio (layer I, II or III)
Comments :
Title=Deep
Artist=Mathusalem
Album=Cursed Garden
Tracknumber=5
Year=2015



Register


Go to the top of the page
  Insert nick Quick quote
+Quote Post
 
Start new topic
Replies (1 - 3)
post Jul 9 2019, 14:04:29
Post #2

Два Литра
**
Group: Завсегдатай
Posts: 155
Releases: 4
On Forums: 7 years 6 months
Thanks: 191 time(s)
Ukraine


This is really good. Does anybody have 320?
Go to the top of the page
  Insert nick Quick quote
+Quote Post
post Jul 9 2019, 14:17:16
Post #3
BAN
Banned till
Oct 7 2019, 23:44:15



ЦИТАТА(ahp @ Jul 9 2019, 17:04:29) *
This is really good. Does anybody have 320?


As soon as it appears in the web it will be uploaded here asap.


Thanks:
(1) ahp,
Go to the top of the page
  Insert nick Quick quote
+Quote Post
post Jul 9 2019, 15:15:36
Post #4

Group: Дух
Posts: 10
Releases: 5
On Forums: 6 years 3 months
Thanks: 54 time(s)
Colombia


QUOTE(ahp @ Jul 9 2019, 08:04:29) *
This is really good. Does anybody have 320?


It's kind of difficult, it depends of Mathiu Thomas (the owner of this proyect). Unfortunately Mathusalem's bandcamp page was deleted by the author several years ago.


Thanks:
(1) ahp,
Go to the top of the page
  Insert nick Quick quote
+Quote Post

Reply to this topicStart new topic
2 User(s) are reading this topic (2 Guests and 0 Anonymous Users)
0 Members:

 



- Lo-Fi Version Support form
Copyrights and abuse reports form
Time is now: 20th September 2019 - 13:13:09