Welcome Guest ( Log In | Register )

> Releases Upload / Добавление релизов

Добавить релиз тут / Click here to add release
Рекомендованные обменники / Recommended file shares

> Zygotical - Zygotical [demo] (2018), Black Metal
post Jul 9 2019, 17:47:35
Post #1

the faceless one
Group Icon
Group: S-moderation team
Posts: 9,206
Releases: 1880
On Forums: 11 years 1 week
Thanks: 110396 time(s)
Russian Federation


(IMG:http://metalarea.org/images/audiocovers/2019_Jul/acov_tid324134_thumb.jpg)

*Artist: Zygotical
*Album: Zygotical [demo]
*Year: 2018
*Genre: Black Metal
*Country: United States (IMG:http://metalarea.org/forum/style_images/flags/United%20States.png)
*Format: mp3@CBR320kbps
*Size: 32MB

Tracklist:
1. Introcide 01:04
2. Inverted Ascension 02:24
3. Phallic Conception 01:34
4. Black Bile Sermon 03:31
5. Goatserpent 02:19
6. Deathtrance 02:21
7. Outrodeath 00:53
******************************
Total playing time: 14:08


(IMG:http://metalarea.org/images/youtube.png)

Technical info
(IMG:http://metalarea.org/images/spectrogram/2019_Jul/dbd1c5fb27f6e2990ae73f236f9a3245.png)
Input File: Zygotical - 04 - Black Bile Sermon.mp3
Channels : 2
Sample Rate : 44100
Precision : 16-bit
Duration : 00:03:30.92 = 9301748 samples = 15819.3 CDDA sectors
File Size : 8.44M
Bit Rate : 320k
Sample Encoding: MPEG audio (layer I, II or III)
Comments :
Title=Black Bile Sermon
Artist=Zygotical
Album=Zygotical
Tracknumber=04
Year=2018
Genre=Black Metal



Register


Go to the top of the page
  Insert nick Quick quote
+Quote Post
 
Start new topic
Replies (1 - 2)
post Jul 9 2019, 19:16:14
Post #2

Восемь Литров
********
Group: Металариец
Posts: 845
Releases: 165
On Forums: 8 years 10 months
Thanks: 2045 time(s)
Albania


VERY GOOD DEMO
Go to the top of the page
  Insert nick Quick quote
+Quote Post
post Jul 11 2019, 17:08:38
Post #3

the faceless one
Group Icon
Group: S-moderation team
Posts: 9,206
Releases: 1880
On Forums: 11 years 1 week
Thanks: 110396 time(s)
Russian Federation


Выложил цифровую мастер-запись данного EP.
Ссылки обновил.


Go to the top of the page
  Insert nick Quick quote
+Quote Post

Reply to this topicStart new topic
1 User(s) are reading this topic (1 Guests and 0 Anonymous Users)
0 Members:

 



- Lo-Fi Version Support form
Copyrights and abuse reports form
Time is now: 22nd August 2019 - 14:14:25