Welcome Guest ( Log In | Register )

> Releases Upload / Добавление релизов

Добавить релиз тут / Click here to add release
Рекомендованные обменники / Recommended file shares

> The Frozen Lake - Ghosts Of Our Time (2019), Melodic Death/Doom Metal
post Jul 10 2019, 14:19:57
Post #1

Serial Uploader
Group Icon
Group: V.I.P
Posts: 35,872
Releases: 34079
From: Lithuania
On Forums: 11 years 2 months
Thanks: 394033 time(s)
Lithuania


(IMG:https://metalarea.org/images/audiocovers/2019_Jul/acov_tid324155_thumb.jpg)

*Artist: The Frozen Lake
*Album: Ghosts Of Our Time
*Year: 2019
*Genre: Melodic Death/Doom Metal
*Country: Sweden (IMG:https://metalarea.org/forum/style_images/flags/Sweden.png)
*Format: mp3@CBR320kbps
*Size: 78MB

Tracklist:
01. Walls
02. The Guardians
03. Siren
04. Frozen Lake
05. One Last Kiss
06. Letter of Regrets
07. Ghosts of our Time
08. The End
******************************
Total playing time: 33:55

Technical info
(IMG:https://metalarea.org/images/spectrogram/2019_Jul/1950d44ad8ccec6272f28373922f9dc3.png)
Input File: 02. The Guardians.mp3
Channels : 2
Sample Rate : 44100
Precision : 16-bit
Duration : 00:04:04.13 = 10766133 samples = 18309.8 CDDA sectors
File Size : 10.3M
Bit Rate : 337k
Sample Encoding: MPEG audio (layer I, II or III)
Comments :
Title=The Guardians
Artist=The Frozen Lake
Album=Ghosts of our Time
Tracknumber=2/8
Year=2019



Register


Go to the top of the page
  Insert nick Quick quote
+Quote Post
 
Start new topic
Replies (1 - 7)
post Jul 10 2019, 21:37:11
Post #2

MDM-Thrash Metal
**************
Group: Металариец
Posts: 8,573
Releases: 570
From: Одесса
On Forums: 12 years 2 weeks
Thanks: 16673 time(s)
Ukraine


https://www.youtube.com/watch?v=h69eSnbT9Lc
https://www.youtube.com/watch?v=LUyV-KSegmQ...EfriG2v4axeWcpM



Thanks:
(2) djsema4, KVRT,
Go to the top of the page
  Insert nick Quick quote
+Quote Post
post Jul 11 2019, 01:21:49
Post #3

Dark Ambient Shoujo
**********
Group: Металариец
Posts: 1,152
Releases: 1
On Forums: 10 years 7 months
Thanks: 574 time(s)
Russian Federation


Когда прокручиваешь песню на ютубе, и весь трек идет один и тот же рифф - это такое...
Go to the top of the page
  Insert nick Quick quote
+Quote Post
post Jul 11 2019, 03:44:43
Post #4

Два Литра
**
Group: Завсегдатай
Posts: 135
Releases: 0
On Forums: 11 years 8 months
Thanks: 14 time(s)
Russian Federation


Хорошо, но мало.
Go to the top of the page
  Insert nick Quick quote
+Quote Post
post Jul 11 2019, 08:20:48
Post #5

hearer & reader
**************
Group: Металариец
Posts: 7,965
Releases: 103
From: Moscow
On Forums: 11 years 11 months
Thanks: 7467 time(s)
Russian Federation


https://music.yandex.ru/album/7999646
Берлога - https://nordanvind-music.com
Он же - https://www.metal-archives.com/bands/Nordanvind/3540429599
Он же - https://www.metal-archives.com/bands/Illvilja/3540440149


Thanks:
Go to the top of the page
  Insert nick Quick quote
+Quote Post
post Jul 18 2019, 21:51:15
Post #6

ME[ta]LLOMAN
**************
Group: Металариец
Posts: 4,915
Releases: 3
From: Avdeyevka
On Forums: 13 years 4 months
Thanks: 1846 time(s)
Honduras


да, но - нет.. (IMG:style_emoticons/default/bye.gif)
Go to the top of the page
  Insert nick Quick quote
+Quote Post
post Jul 25 2019, 13:46:40
Post #7

Ъ
**************
Group: Металариец
Posts: 9,646
Releases: 9
On Forums: 10 years 7 months
Thanks: 1882 time(s)
Sweden


Третьесорт, на раз прогнал, стиль в шапке явно жестковат для содержимого.
Go to the top of the page
  Insert nick Quick quote
+Quote Post
post Jul 27 2019, 15:47:43
Post #8

Литр
*
Group: Подсевший
Posts: 87
Releases: 2
On Forums: 9 years 1 month
Thanks: 63 time(s)
Russian Federation


FLAC: https://yadi.sk/d/iZ1EgO_wQ7Kn7w


Thanks:
Go to the top of the page
  Insert nick Quick quote
+Quote Post

Reply to this topicStart new topic
1 User(s) are reading this topic (1 Guests and 0 Anonymous Users)
0 Members:

 



- Lo-Fi Version Support form
Copyrights and abuse reports form
Time is now: 26th August 2019 - 03:26:41