Welcome Guest ( Log In | Register )

> Fire Wheel - Ignited (2019), Melodic Black/Death Metal
post Jul 10 2019, 14:33:45
Post #1

Serial Uploader
Group Icon
Group: V.I.P
Posts: 36,132
Releases: 34331
From: Lithuania
On Forums: 11 years 3 months
Thanks: 398078 time(s)
Lithuania


(IMG:https://metalarea.org/images/audiocovers/2019_Jul/acov_tid324157_thumb.jpg)

*Artist: Fire Wheel
*Album: Ignited
*Year: 2019
*Genre: Melodic Black/Death Metal
*Country: France (IMG:https://metalarea.org/forum/style_images/flags/France.png)
*Format: mp3@CBR320kbps
*Size: 117MB

Tracklist:
01. Open Your Mind 01:40
02. The World Is Rotting Inside 03:02
03. Ignited 03:53
04. Fight 03:45
05. Passing Rain 03:23
06. Heaven 04:24
07. Laying on a Bed 05:19
08. Night of the Dark Thoughts 08:36
09. Longway 04:58
10. Ashes 04:47
11. Agony 05:40
******************************
Total playing time: 49:27



(IMG:https://metalarea.org/images/youtube.png)

Technical info
(IMG:https://metalarea.org/images/spectrogram/2019_Jul/7c76b709d25fa9bbf77649439db84496.png)
Input File: 02. The World Is Rotting Inside.mp3
Channels : 2
Sample Rate : 44100
Precision : 16-bit
Duration : 00:03:02.74 = 8058790 samples = 13705.4 CDDA sectors
File Size : 7.68M
Bit Rate : 336k
Sample Encoding: MPEG audio (layer I, II or III)
Comments :
Title=The World Is Rotting Inside
Artist=Fire Wheel
Album=Ignited
Tracknumber=2/11
Year=2019



Register


Go to the top of the page
  Insert nick Quick quote
+Quote Post
 
Start new topic
Replies (1 - 3)
post Jul 11 2019, 16:15:20
Post #2

Это просто место… где все подошло к концу.
**************
Group: Металариец
Posts: 5,592
Releases: 0
From: Страны Мамонтов
On Forums: 12 years 7 months
Thanks: 1981 time(s)
Antarctica


Качественно шпарят французы, но на долго ли запомнятся?
Go to the top of the page
  Insert nick Quick quote
+Quote Post
post Jul 13 2019, 07:16:14
Post #3

Правь статус, ####!111
**************
Group: Металариец
Posts: 2,610
Releases: 8
From: Dnipro
On Forums: 11 years 2 months
Thanks: 801 time(s)
Ukraine


Блэка тупо не услышал, грувистый пластиковый мелодик death, причем низкокачественный.


Thanks:
Go to the top of the page
  Insert nick Quick quote
+Quote Post
post Jul 27 2019, 15:45:42
Post #4

Литр
*
Group: Подсевший
Posts: 90
Releases: 2
On Forums: 9 years 2 months
Thanks: 88 time(s)
Russian Federation


FLAC:
Register


Thanks:
(1) Olethros,
Go to the top of the page
  Insert nick Quick quote
+Quote Post

Reply to this topicStart new topic
1 User(s) are reading this topic (1 Guests and 0 Anonymous Users)
0 Members:

 



- Lo-Fi Version Support form
Copyrights and abuse reports form
Time is now: 20th September 2019 - 04:47:59