Welcome Guest ( Log In | Register )

> Releases Upload / Добавление релизов

Добавить релиз тут / Click here to add release
Рекомендованные обменники / Recommended file shares

> Demiurgon - The Oblivious Lure (2019), Death Metal
post Jul 10 2019, 19:11:24
Post #1

Правь статус, ####!111
**************
Group: Металариец
Posts: 18,148
Releases: 12274
From: Г.Харьков
On Forums: 7 years 3 months
Thanks: 206873 time(s)
Unknown


(IMG:https://metalarea.org/images/audiocovers/2019_Jul/acov_tid324174_thumb.jpg)

*Artist: Demiurgon
*Album: The Oblivious Lure
*Year: 2019
*Genre: Death Metal
*Country: Italy (IMG:https://metalarea.org/forum/style_images/flags/Italy.png)
*Format: mp3@CBR320kbps
*Size: 92MB

Tracklist:
1. Tsansas 02:33
2. Kapalikas 05:27
3. ...dèi dimenticati 05:15
4. Il culto cannibale 05:25
5. Profezia di una specie morente 05:35
6. The Oblivious Lure 05:00
7. Teatro del coito 05:05
8. The Day Dawn Came Twice 05:41
******************************
Total playing time: 40:01




Extended info
Riccardo Valenti Drums
Emanuele Ottani Guitars
Dani Benincasa Guitars
Stefano Borciani Vocals
Riccardo Benedini Bass



Technical info
(IMG:https://metalarea.org/images/spectrogram/2019_Jul/1e574f968527356438dcb77ed96c1d40.png)
Input File: 02. Kapalikas.mp3
Channels : 2
Sample Rate : 44100
Precision : 16-bit
Duration : 00:05:26.87 = 14414747 samples = 24514.9 CDDA sectors
File Size : 13.2M
Bit Rate : 322k
Sample Encoding: MPEG audio (layer I, II or III)
Comments :
Title=Kapalikas
Artist=Demiurgon
Album=The Oblivious Lure
Tracknumber=2
Year=2019
Genre=Technical Death Metal



Register


Go to the top of the page
  Insert nick Quick quote
+Quote Post
 
Start new topic
Replies (1 - 3)
post Jul 10 2019, 21:39:59
Post #2

Правь статус, ####!111
**************
Group: Металариец
Posts: 18,148
Releases: 12274
From: Г.Харьков
On Forums: 7 years 3 months
Thanks: 206873 time(s)
Unknown


FLAC (Tracks) 295 mb
Register


Go to the top of the page
  Insert nick Quick quote
+Quote Post
post Jul 10 2019, 23:30:41
Post #3

Crush The Enemies
**************
Group: Металариец
Posts: 4,217
Releases: 0
From: Moscow
On Forums: 9 years 11 months
Thanks: 2379 time(s)
Russian Federation



Бронебойный вокал ФРОНТМЭНА с первых же секунд прослушивания оттесняет внутреннее содержимое на второй план - но и оно не уступает в ЯРОСТНОМ НАТИСКЕ своему предводителю! (IMG:style_emoticons/default/metaler.gif) (IMG:style_emoticons/default/metaler.gif) (IMG:style_emoticons/default/metaler.gif)


Go to the top of the page
  Insert nick Quick quote
+Quote Post
post Jul 11 2019, 15:04:25
Post #4

тебе 28, а ты все реверсами балуешься
***********
Group: Металариец
Posts: 1,707
Releases: 4
On Forums: 11 years 3 weeks
Thanks: 483 time(s)
Russian Federation


Я уже говорил, итальянцы какаху не сделают - всё по заветам пенансов, хидеус дивинити и иже с ними.
Но если честно пойду лучше парадогму переслушаю - вот где жир изначальный.


Thanks:
(1) Metalass,
Go to the top of the page
  Insert nick Quick quote
+Quote Post

Reply to this topicStart new topic
1 User(s) are reading this topic (1 Guests and 0 Anonymous Users)
0 Members:

 



- Lo-Fi Version Support form
Copyrights and abuse reports form
Time is now: 20th August 2019 - 22:25:19