Welcome Guest ( Log In | Register )

> Crucificator - Sunrise In The Suicide Front (2016), Death Metal
post Jul 10 2019, 20:22:54
Post #1

Правь статус, ####!111
**************
Group: Металариец
Posts: 18,597
Releases: 12591
From: Г.Харьков
On Forums: 7 years 4 months
Thanks: 213290 time(s)
Unknown


(IMG:https://metalarea.org/images/audiocovers/2019_Jul/acov_tid324175_thumb.jpg)

*Artist: Crucificator
*Album: Sunrise In The Suicide Front
*Year: 2016
*Genre: Death Metal
*Country: Brazil (IMG:https://metalarea.org/forum/style_images/flags/Brazil.png)
*Format: mp3@CBR320kbps
*Size: 68MB

Tracklist:
1. Atacck (Intro) 01:26 instrumental
2. Tales of War 04:03
3. Front 01:25
4. Visceral Celebration 03:18
5. Chemical Damnation 04:33
6. Napalm Memories 03:21 instrumental
7. Triachy of Violent Dynasty 02:03
8. Dead Kingdom Domain 02:16
9. Holocaust Visions 03:13
10. Matar Sempre 04:25
******************************
Total playing time: 30:03



Extended info
Agnostic Bass
Artillery Drums
Hategun Guitars
See also: ex-Offertorium
Baalerith Guitars
Malignum Vocals
See also: ex-Offertorium


Technical info
(IMG:https://metalarea.org/images/spectrogram/2019_Jul/f6a3ec5531cf8ed50a9e5a73def9cd7d.png)
Input File: 5 - Chemical Damnation.mp3
Channels : 2
Sample Rate : 44100
Precision : 16-bit
Duration : 00:04:14.29 = 11214145 samples = 19071.7 CDDA sectors
File Size : 10.3M
Bit Rate : 323k
Sample Encoding: MPEG audio (layer I, II or III)
Comments :
Title=Chemical Damnation
Artist=Crucificator
Album=Sunrise in the Suicide Front
Tracknumber=5
Year=2016
Genre=Metal
Discnumber=1



Register


Go to the top of the page
  Insert nick Quick quote
+Quote Post
 
Start new topic
Replies (1 - 1)
post Jul 18 2019, 21:42:34
Post #2

ME[ta]LLOMAN
**************
Group: Металариец
Posts: 4,918
Releases: 3
From: Avdeyevka
On Forums: 13 years 5 months
Thanks: 1862 time(s)
Honduras


южноомереканцкая сцена не перестаёт одаривать годнотой.. (IMG:style_emoticons/default/banana.gif)


Thanks:
Go to the top of the page
  Insert nick Quick quote
+Quote Post

Reply to this topicStart new topic
2 User(s) are reading this topic (2 Guests and 0 Anonymous Users)
0 Members:

 



- Lo-Fi Version Support form
Copyrights and abuse reports form
Time is now: 22nd September 2019 - 00:52:55