Welcome Guest ( Log In | Register )

> Releases Upload / Добавление релизов

Добавить релиз тут / Click here to add release
Рекомендованные обменники / Recommended file shares

> Hyvmine - Retaliation (2019), Progressive Metal
post Jul 11 2019, 11:42:28
Post #1

Serial Uploader
Group Icon
Group: V.I.P
Posts: 35,861
Releases: 34042
From: Lithuania
On Forums: 11 years 2 months
Thanks: 393495 time(s)
Lithuania


(IMG:https://metalarea.org/images/audiocovers/2019_Jul/acov_tid324197_thumb.jpg)

*Artist: Hyvmine
*Album: Retaliation
*Year: 2019
*Genre: Progressive Metal
*Country: United States (IMG:https://metalarea.org/forum/style_images/flags/United%20States.png)
*Format: mp3@CBR320kbps
*Size: 114MB

Tracklist:
01. Assassins 05:50
02. Imitator 04:15
03. Born To Wage 03:56
04. Retaliation 04:33
05. Dark Holes 04:46
06. Liberation 04:46
07. Demoness 03:40
08. Flesh n' Blood 04:18
09. Life In Fire 04:25
10. Paracynic 04:33
11. Tight Rope 04:34
******************************
Total playing time: 49:36



(IMG:https://metalarea.org/images/youtube.png)

Technical info
(IMG:https://metalarea.org/images/spectrogram/2019_Jul/3043dbc425281591c2db9721eae761c3.png)
Input File: 2 - Imitator.mp3
Channels : 2
Sample Rate : 44100
Precision : 16-bit
Duration : 00:04:15.20 = 11254496 samples = 19140.3 CDDA sectors
File Size : 10.2M
Bit Rate : 321k
Sample Encoding: MPEG audio (layer I, II or III)
Comments :
Title=Imitator
Artist=HYVMINE
Album=Retaliation
Tracknumber=2
Year=2019
Genre=Metal
Discnumber=1



Register


Go to the top of the page
  Insert nick Quick quote
+Quote Post
 
Start new topic
Replies (1 - 3)
post Jul 11 2019, 17:01:07
Post #2

MDM-Thrash Metal
**************
Group: Металариец
Posts: 8,549
Releases: 565
From: Одесса
On Forums: 12 years 1 week
Thanks: 16603 time(s)
Ukraine


Cloud 320:
Register


Thanks:
Go to the top of the page
  Insert nick Quick quote
+Quote Post
post Jul 13 2019, 12:11:58
Post #3

21st Century Schizoid Man
**************
Group: Металариец
Posts: 5,937
Releases: 71
From: Moscow
On Forums: 11 years 3 months
Thanks: 4602 time(s)
Russian Federation


У них был очень крутой дебютник. Надо послушать.
Go to the top of the page
  Insert nick Quick quote
+Quote Post
post Jul 25 2019, 10:56:05
Post #4

Ъ
**************
Group: Металариец
Posts: 9,637
Releases: 9
On Forums: 10 years 7 months
Thanks: 1879 time(s)
Sweden


Несколько раз послушать можно, пара треков хороших есть.
Go to the top of the page
  Insert nick Quick quote
+Quote Post

Reply to this topicStart new topic
1 User(s) are reading this topic (1 Guests and 0 Anonymous Users)
0 Members:

 



- Lo-Fi Version Support form
Copyrights and abuse reports form
Time is now: 23rd August 2019 - 09:46:52