Welcome Guest ( Log In | Register )

> Releases Upload / Добавление релизов

Добавить релиз тут / Click here to add release
Рекомендованные обменники / Recommended file shares

> Dopehammer - Spaced: The Final Bluntier (2019), Slamming Brutal Death Metal
post Jul 11 2019, 11:59:14
Post #1

Serial Uploader
Group Icon
Group: V.I.P
Posts: 35,831
Releases: 34039
From: Lithuania
On Forums: 11 years 2 months
Thanks: 393337 time(s)
Lithuania


(IMG:https://metalarea.org/images/audiocovers/2019_Jul/acov_tid324199_thumb.jpg)

*Artist: Dopehammer
*Album: Spaced: The Final Bluntier
*Year: 2019
*Genre: Slamming Brutal Death Metal
*Country: United Kingdom (IMG:https://metalarea.org/forum/style_images/flags/United%20Kingdom.png)
*Format: mp3@CBR320kbps
*Size: 86MB

Tracklist:
01. 24 Hour Prolapse People 04:12
02. James Corden Fucked in the Arse with an AIDS-Infected Chainsaw 03:44
03. To Boldly Roll 04:33
04. Blazed in a Northern Sky 03:38
05. Strapped Into Chairs and Beaten with Hammers 03:48
06. Negative Mental Attitude 03:28
07. All-Pervasive Human Effluent 03:38
08. Fuck Off Back to Bassline 04:24
09. I'm So Excited (The Pointer Sisters cover) 06:05
******************************
Total playing time: 37:30





Technical info
(IMG:https://metalarea.org/images/spectrogram/2019_Jul/0a7cc70e93b1b4a406463bda5e400a67.png)
Input File: 02. James Corden Fucked In The Arse With An AIDS-Infected Chainsaw.mp3
Channels : 2
Sample Rate : 44100
Precision : 16-bit
Duration : 00:03:44.48 = 9899656 samples = 16836.1 CDDA sectors
File Size : 9.08M
Bit Rate : 324k
Sample Encoding: MPEG audio (layer I, II or III)
Comments :
Title=James Corden Fucked In The Arse With An AIDS-Infected Chainsaw
Artist=Dopehammer
Album=Spaced: The Final Bluntier
Tracknumber=2
Year=2019



Register


Go to the top of the page
  Insert nick Quick quote
+Quote Post
 
Start new topic
Replies (1 - 2)
post Jul 11 2019, 17:04:08
Post #2

Правь статус, ####!111
**************
Group: Металариец
Posts: 42,372
Releases: 641
On Forums: 10 years 2 months
Thanks: 33212 time(s)
Russian Federation


Обложка сама говорит всё сама за себя. (IMG:style_emoticons/default/15.gif)


Thanks:
Go to the top of the page
  Insert nick Quick quote
+Quote Post
post Aug 4 2019, 08:31:24
Post #3

Правь статус, ####!111
**************
Group: Металариец
Posts: 3,960
Releases: 0
From: Одесса
On Forums: 11 years 5 months
Thanks: 2060 time(s)
Unknown


flushed
Go to the top of the page
  Insert nick Quick quote
+Quote Post

Reply to this topicStart new topic
1 User(s) are reading this topic (1 Guests and 0 Anonymous Users)
0 Members:

 



- Lo-Fi Version Support form
Copyrights and abuse reports form
Time is now: 21st August 2019 - 16:10:08