Welcome Guest ( Log In | Register )

> Releases Upload / Добавление релизов

Добавить релиз тут / Click here to add release
Рекомендованные обменники / Recommended file shares

> Abigor - Four Keys To A Foul Reich [compilation] (2019), Black Metal (D)
post Jul 11 2019, 12:07:42
Post #1

Три Литра
***
Group: Завсегдатай
Posts: 219
Releases: 116
On Forums: 6 years 10 months
Thanks: 2546 time(s)
Unknown


(IMG:http://metalarea.org/images/audiocovers/2019_Jul/acov_tid324200_thumb.jpg)

*Artist: Abigor
*Album: Four Keys To A Foul Reich [compilation]
*Year: 2019
*Genre: Black Metal
*Country: Austria (IMG:http://metalarea.org/forum/style_images/flags/Austria.png)
*Format: mp3@CBR320kbps
*Size: 180MB

Tracklist:
1. Supreme and Immortal 05:54
2. Soil of Souls 04:42
3. Kingdom of Darkness 08:29
4. Severance 02:54
5. Celestial 02:33
6. Eerie Constellation 05:18
7. Black Icarus 04:29
8. Metamorphosis 02:11
9. Satan in Me (instrumental) 05:14
10. Supreme Immortal Art (instrumental) 06:04
11. Blood and Soil (instrumental) 04:42
12. Magic Glass Monument (instrumental) 05:49
13. The Spirit of Venus (instrumental) 05:58
14. Eclipse My heart, Crown Me (instrumental) 04:36
15. Soil of Souls (instrumental) 04:12
16. Exhausted Remnants (instrumental) 04:43
******************************
Total playing time: 1:17:48



Extended info
Four Keys To A Foul Reich
(songs of pestilence, darkness and death)
This release features for the first time on CD format a compilation of vinyl-only releases dated from 2013 to 2018


Technical info
(IMG:http://metalarea.org/images/spectrogram/2019_Jul/e8ebf22d66d1de81d5a0ea35a428611a.png)
Input File: Abigor - Four Keys To A Foul Reich - 01 Supreme and Immortal.mp3
Channels : 2
Sample Rate : 44100
Precision : 16-bit
Duration : 00:05:54.08 = 15615060 samples = 26556.2 CDDA sectors
File Size : 14.3M
Bit Rate : 323k
Sample Encoding: MPEG audio (layer I, II or III)
Comments :
Title=Supreme and Immortal
Artist=Abigor
Album=Four Keys To A Foul Reich
Tracknumber=1
Year=2019



Register


Go to the top of the page
  Insert nick Quick quote
+Quote Post
 
Start new topic
Replies (1 - 2)
post Jul 11 2019, 19:20:24
Post #2

Zero Tolerance
**
Group: Завсегдатай
Posts: 173
Releases: 0
On Forums: 6 years 9 months
Thanks: 25 time(s)
Unknown


жЫр. От души. (IMG:style_emoticons/default/gop_spb.gif) Хотя по-альбомно -- жирнее сабж вштыривает.
Go to the top of the page
  Insert nick Quick quote
+Quote Post
post Jul 12 2019, 17:22:06
Post #3

poison creosote
******
Group: Металариец
Posts: 646
Releases: 1
On Forums: 2 years 1 month
Thanks: 334 time(s)
Iceland


Чёто както никак. Лучше полноформатники переслушать.
Go to the top of the page
  Insert nick Quick quote
+Quote Post

Reply to this topicStart new topic
2 User(s) are reading this topic (2 Guests and 0 Anonymous Users)
0 Members:

 



- Lo-Fi Version Support form
Copyrights and abuse reports form
Time is now: 17th July 2019 - 01:26:51