Welcome Guest ( Log In | Register )

> Releases Upload / Добавление релизов

Добавить релиз тут / Click here to add release
Рекомендованные обменники / Recommended file shares

> Darkride - Weight Of The World (2019), Thrash/Power/Progressive Metal/Metalcore
post Jul 11 2019, 12:32:13
Post #1

Serial Uploader
Group Icon
Group: V.I.P
Posts: 35,606
Releases: 33815
From: Lithuania
On Forums: 11 years 1 month
Thanks: 389357 time(s)
Lithuania


(IMG:https://metalarea.org/images/audiocovers/2019_Jul/acov_tid324203_thumb.jpg)

*Artist: Darkride
*Album: Weight Of The World
*Year: 2019
*Genre: Thrash/Power/Progressive Metal/Metalcore
*Country: Germany (IMG:https://metalarea.org/forum/style_images/flags/Germany.png)
*Format: mp3@CBR320kbps
*Size: 102MB

Tracklist:
01. Hammer Down
02. Blood of My Soul
03. Burning Bridges
04. Deny Control
05. Absolution
06. Generation Under Fire
07. Stare I-O
08. Peace of Me
09. Justice Will Be Done
10. Dogs of War
11. Weight of the World
******************************
Total playing time: 44:19



Technical info
(IMG:https://metalarea.org/images/spectrogram/2019_Jul/e4649386ed9a2522bce5cf3e2c32098b.png)
Input File: 2 - Blood of My Soul.mp3
Channels : 2
Sample Rate : 44100
Precision : 16-bit
Duration : 00:04:08.88 = 10975696 samples = 18666.1 CDDA sectors
File Size : 10.0M
Bit Rate : 322k
Sample Encoding: MPEG audio (layer I, II or III)
Comments :
Title=Blood of My Soul
Artist=Darkride
Album=Weight of the World
Tracknumber=2
Year=2019
Genre=Metal
Discnumber=1



Register


Go to the top of the page
  Insert nick Quick quote
+Quote Post
 
Start new topic
Replies (1 - 4)
post Jul 11 2019, 16:12:43
Post #2

Это просто место… где все подошло к концу.
**************
Group: Металариец
Posts: 5,541
Releases: 0
From: Страны Мамонтов
On Forums: 12 years 4 months
Thanks: 1948 time(s)
Antarctica


М-м-м, какой-то еще стиль не указали (IMG:style_emoticons/default/hmm.gif)
Go to the top of the page
  Insert nick Quick quote
+Quote Post
post Jul 11 2019, 16:17:32
Post #3

Правь статус, ####!111
**************
Group: Металариец
Posts: 41,109
Releases: 605
On Forums: 10 years 1 month
Thanks: 31778 time(s)
Russian Federation


Название у Нelloween подтырили (IMG:style_emoticons/default/25.gif)
Go to the top of the page
  Insert nick Quick quote
+Quote Post
post Jul 11 2019, 17:37:05
Post #4

hearer & reader
**************
Group: Металариец
Posts: 7,895
Releases: 103
From: Moscow
On Forums: 11 years 10 months
Thanks: 7405 time(s)
Russian Federation




Бодро.


Thanks:
(2) Andrew, Mplast,
Go to the top of the page
  Insert nick Quick quote
+Quote Post
post Jul 11 2019, 21:36:46
Post #5

MDM-Thrash Metal
**************
Group: Металариец
Posts: 8,328
Releases: 493
From: Одесса
On Forums: 11 years 11 months
Thanks: 15753 time(s)
Ukraine




ЦИТАТА(AHBAnep @ Jul 11 2019, 19:37:05) *
Бодро.

Да, неплохо. Если бы еще эти дурацкие замедления поубирать и еще жесткости добавить - было очень даже!
Go to the top of the page
  Insert nick Quick quote
+Quote Post

Reply to this topicStart new topic
1 User(s) are reading this topic (1 Guests and 0 Anonymous Users)
0 Members:

 



- Lo-Fi Version Support form
Copyrights and abuse reports form
Time is now: 17th July 2019 - 02:16:08