Welcome Guest ( Log In | Register )

> Unknown Artist - Untitled [demo] (2019), Raw Black Metal
post Jul 11 2019, 12:34:55
Post #1

Три Литра
***
Group: Завсегдатай
Posts: 292
Releases: 155
On Forums: 7 years 1 month
Thanks: 3803 time(s)
Unknown


(IMG:http://metalarea.org/images/audiocovers/2019_Jul/acov_tid324204_thumb.png)

*Artist: Unknown Artist
*Album: Untitled [demo]
*Year: 2019
*Genre: Raw Black Metal
*Country: Unknown (IMG:http://metalarea.org/forum/style_images/flags/Unknown.png)
*Format: mp3@CBR320kbps
*Size: 50MB

Tracklist:
1. Untitled 03:22
2. Untitled 03:08
3. Untitled 03:10
4. Untitled 04:47
5. Untitled 05:58
******************************
Total playing time: 20:25

Extended info
Perverse Homage


Technical info
(IMG:http://metalarea.org/images/spectrogram/2019_Jul/0170e3c9cc9685e2b3f19ed46201ec2a.png)
Input File: 01. Untitled.mp3
Channels : 2
Sample Rate : 48000
Precision : 16-bit
Duration : 00:03:22.25 = 9707904 samples ~ 15168.6 CDDA sectors
File Size : 8.09M
Bit Rate : 320k
Sample Encoding: MPEG audio (layer I, II or III)
Comments :
Title=Untitled
Artist=Unknown Artist
Album=Untitled
Tracknumber=1/5
Year=2019
Genre=Black Metal



Register


Go to the top of the page
  Insert nick Quick quote
+Quote Post
 
Start new topic
Replies (1 - 8)
post Jul 11 2019, 15:38:01
Post #2

Absorbence
***********
Group: Металариец
Posts: 1,689
Releases: 215
From: Vastland Abyss of Cthulhu
On Forums: 12 years 11 months
Thanks: 3714 time(s)
Canada


no information on metal-archives (IMG:style_emoticons/default/hung.gif)
Go to the top of the page
  Insert nick Quick quote
+Quote Post
post Jul 11 2019, 15:38:42
Post #3

Три Литра
***
Group: Завсегдатай
Posts: 292
Releases: 155
On Forums: 7 years 1 month
Thanks: 3803 time(s)
Unknown


ЦИТАТА(sacrut @ Jul 11 2019, 15:38:01) *
no information on metal-archives (IMG:style_emoticons/default/hung.gif)

no information anywhere
Go to the top of the page
  Insert nick Quick quote
+Quote Post
post Jul 11 2019, 19:07:50
Post #4

Zero Tolerance
**
Group: Завсегдатай
Posts: 176
Releases: 0
On Forums: 7 years 4 weeks
Thanks: 25 time(s)
Unknown


Квадрат Малевича не изображён на облоге? Это ни х€ра не труЪ. (IMG:style_emoticons/default/18.gif)
Go to the top of the page
  Insert nick Quick quote
+Quote Post
post Jul 11 2019, 21:44:00
Post #5

Group: Подсевший
Posts: 46
Releases: 0
On Forums: 4 months 2 weeks
Thanks: 9 time(s)
Russian Federation


Вах как мистишно! Вах как трве квлт!


Thanks:
Go to the top of the page
  Insert nick Quick quote
+Quote Post
post Jul 12 2019, 00:42:24
Post #6

Литр
*
Group: Подсевший
Posts: 89
Releases: 0
From: italy
On Forums: 12 years 4 months
Thanks: 12 time(s)
Italy


here is the label: https://www.metal-archives.com/labels/Perverse_Homage/
Go to the top of the page
  Insert nick Quick quote
+Quote Post
post Jul 12 2019, 06:47:02
Post #7

кручу наждак
**************
Group: Металариец
Posts: 4,065
Releases: 98
From: Самара
On Forums: 9 years 5 months
Thanks: 3122 time(s)
Russian Federation


Мутная подвальная шняга с какими-то зачатками мелодий, которые, впрочем, все равно не слышно из-за завываний вокалиста.
Go to the top of the page
  Insert nick Quick quote
+Quote Post
post Jul 12 2019, 06:49:47
Post #8

my church is black
*******
Group: Металариец
Posts: 781
Releases: 1
On Forums: 2 years 4 months
Thanks: 437 time(s)
Cape Verde


могли бы, для пущей трушности, никуда не выкладывать. или никуда не записывать вообще - вот это воистину труъ!


Thanks:
(1) Occultas,
Go to the top of the page
  Insert nick Quick quote
+Quote Post
post Jul 16 2019, 16:48:17
Post #9

Четыре Литра
****
Group: Металариец
Posts: 376
Releases: 59
From: italy
On Forums: 11 years 3 months
Thanks: 1294 time(s)
Italy


the artist might be unknown but the music is certainly trash
Go to the top of the page
  Insert nick Quick quote
+Quote Post

Reply to this topicStart new topic
1 User(s) are reading this topic (1 Guests and 0 Anonymous Users)
0 Members:

 



- Lo-Fi Version Support form
Copyrights and abuse reports form
Time is now: 15th October 2019 - 07:31:01