Welcome Guest ( Log In | Register )

 
Reply to this topicStart new topic
> Cerberus - Fire (2019), Groove/Progressive Metal (D)
post Jul 11 2019, 12:48:48
Post #1

Serial Uploader
Group Icon
Group: V.I.P
Posts: 36,277
Releases: 34471
From: Lithuania
On Forums: 11 years 4 months
Thanks: 400872 time(s)
Lithuania


(IMG:https://metalarea.org/images/audiocovers/2019_Jul/acov_tid324207_thumb.jpg)

*Artist: Cerberus
*Album: Fire
*Year: 2019
*Genre: Groove/Progressive Metal
*Country: Mexico (IMG:https://metalarea.org/forum/style_images/flags/Mexico.png)
*Format: mp3@CBR320kbps
*Size: 131MB

Tracklist:
01. The Ending 04:12
02. Off Limits 03:40
03. Lust for Blood 03:27
04. Jaeger 03:30
05. Self Made Hell 04:27
06. Last Dance 03:58
07. Saint Pride 03:54
08. I'm Fire 03:54
09. Huntress 04:00
10. Rise with the Fallen 04:29
11. Tekilla 04:49
12. Forever 04:12
13. Stfu! (Bonus Track) 03:56
14. Tekilla (Spanish Version) (Bonus Track) 03:56
******************************
Total playing time: 56:24





Technical info
(IMG:https://metalarea.org/images/spectrogram/2019_Jul/9394251ff2417e6d423c98a377ae47a9.png)
Input File: 2 - Off Limits.mp3
Channels : 2
Sample Rate : 44100
Precision : 16-bit
Duration : 00:03:37.14 = 9575918 samples = 16285.6 CDDA sectors
File Size : 8.78M
Bit Rate : 323k
Sample Encoding: MPEG audio (layer I, II or III)
Comments :
Title=Off Limits
Artist=Cerberus
Album=Fire!
Tracknumber=2
Year=2019
Genre=Metal
Discnumber=1



Register


Go to the top of the page
  Insert nick Quick quote
+Quote Post

Reply to this topicStart new topic
1 User(s) are reading this topic (1 Guests and 0 Anonymous Users)
0 Members:

 



- Lo-Fi Version Support form
Copyrights and abuse reports form
Time is now: 15th October 2019 - 07:00:25