Welcome Guest ( Log In | Register )

> Releases Upload / Добавление релизов

Добавить релиз тут / Click here to add release
Рекомендованные обменники / Recommended file shares

> Maelstrom Vale - Silhouettes (2019), Progressive Death Metal
post Jul 11 2019, 13:01:07
Post #1

Serial Uploader
Group Icon
Group: V.I.P
Posts: 35,606
Releases: 33815
From: Lithuania
On Forums: 11 years 1 month
Thanks: 389357 time(s)
Lithuania


(IMG:https://metalarea.org/images/audiocovers/2019_Jul/acov_tid324208_thumb.jpg)

*Artist: Maelstrom Vale
*Album: Silhouettes
*Year: 2019
*Genre: Progressive Death Metal
*Country: Canada (IMG:https://metalarea.org/forum/style_images/flags/Canada.png)
*Format: mp3@CBR320kbps
*Size: 96MB

Tracklist:
01. "Many Years Later..."
02. To Surpass the Gods
03. Thulcandra
04. The Fear of July
05. Thulcandra Pt II: The Boogeyman
06. Doomed Traveler
07. Shadow Puppets
******************************
Total playing time: 41:46




Technical info
(IMG:https://metalarea.org/images/spectrogram/2019_Jul/8ee3da24f1d11fb00ff51b694e64bdb6.png)
Input File: 2 - To Surpass the Gods.mp3
Channels : 2
Sample Rate : 44100
Precision : 16-bit
Duration : 00:06:26.69 = 17052809 samples = 29001.4 CDDA sectors
File Size : 15.5M
Bit Rate : 321k
Sample Encoding: MPEG audio (layer I, II or III)
Comments :
Title=To Surpass the Gods
Artist=Maelstrom Vale
Album=Silhouettes
Tracknumber=2
Year=2019
Genre=Alternative/Indie Rock/Metal
Discnumber=1



Register


Go to the top of the page
  Insert nick Quick quote
+Quote Post
 
Start new topic
Replies (1 - 1)
post Jul 13 2019, 13:40:28
Post #2

Group: Подсевший
Posts: 35
Releases: 0
From: Belarus
On Forums: 9 years 1 week
Thanks: 8 time(s)
Belarus


Вялики дзякуй!
Go to the top of the page
  Insert nick Quick quote
+Quote Post

Reply to this topicStart new topic
1 User(s) are reading this topic (1 Guests and 0 Anonymous Users)
0 Members:

 



- Lo-Fi Version Support form
Copyrights and abuse reports form
Time is now: 17th July 2019 - 01:55:26