Welcome Guest ( Log In | Register )

> Releases Upload / Добавление релизов

Добавить релиз тут / Click here to add release
Рекомендованные обменники / Recommended file shares

> Metalian - Vortex (2019), Heavy/Speed Metal (D8)
post Jul 11 2019, 13:08:19
Post #1

Serial Uploader
Group Icon
Group: V.I.P
Posts: 35,606
Releases: 33815
From: Lithuania
On Forums: 11 years 1 month
Thanks: 389356 time(s)
Lithuania


(IMG:https://metalarea.org/images/audiocovers/2019_Jul/acov_tid324209_thumb.jpg)

*Artist: Metalian
*Album: Vortex
*Year: 2019
*Genre: Heavy/Speed Metal
*Country: Canada (IMG:https://metalarea.org/forum/style_images/flags/Canada.png)
*Format: mp3@CBR320kbps
*Size: 70MB

Tracklist:
01. Prologue 03:25
02. The Sirens Wail 04:02
03. Full Throttle 04:44
04. Vortex 03:17
05. Land of the Brave 04:03
06. Liquid Fire 03:33
07. Broke Down 04:24
08. No Home 03:13
******************************
Total playing time: 30:41

(IMG:https://metalarea.org/images/myspace.png)



Technical info
(IMG:https://metalarea.org/images/spectrogram/2019_Jul/412782f3af44de8861c91b72119e5b5e.png)
Input File: 2 - The Sirens Wail.mp3
Channels : 2
Sample Rate : 44100
Precision : 16-bit
Duration : 00:04:02.35 = 10687679 samples = 18176.3 CDDA sectors
File Size : 9.76M
Bit Rate : 322k
Sample Encoding: MPEG audio (layer I, II or III)
Comments :
Title=The Sirens Wail
Artist=Metalian
Album=Vortex
Tracknumber=2
Year=2019
Genre=Rock/Hard Rock/Metal
Discnumber=1



Register


Go to the top of the page
  Insert nick Quick quote
+Quote Post
 
Start new topic
Replies (1 - 2)
post Jul 11 2019, 15:42:01
Post #2

Правь статус, ####!111
**************
Group: Металариец
Posts: 17,750
Releases: 12037
From: Г.Харьков
On Forums: 7 years 2 months
Thanks: 202085 time(s)
Unknown


Cloud Mail 320
Register


Go to the top of the page
  Insert nick Quick quote
+Quote Post
post Jul 13 2019, 15:06:39
Post #3

South Of Heaven /адепт ВУДУ
**************
Group: Металариец
Posts: 13,653
Releases: 9
On Forums: 9 years 3 months
Thanks: 5067 time(s)
Unknown


Молчим значит.
Должно быть халяльно.
Предыдущие опусы были хороши.
Go to the top of the page
  Insert nick Quick quote
+Quote Post

Reply to this topicStart new topic
1 User(s) are reading this topic (1 Guests and 0 Anonymous Users)
0 Members:

 



- Lo-Fi Version Support form
Copyrights and abuse reports form
Time is now: 17th July 2019 - 01:22:43