Welcome Guest ( Log In | Register )

> Dream Tröll - Second To None (2019), Heavy/Power Metal
post Jul 11 2019, 13:17:26
Post #1

Serial Uploader
Group Icon
Group: V.I.P
Posts: 36,277
Releases: 34471
From: Lithuania
On Forums: 11 years 4 months
Thanks: 400873 time(s)
Lithuania


(IMG:https://metalarea.org/images/audiocovers/2019_Jul/acov_tid324210_thumb.jpg)

*Artist: Dream Tröll
*Album: Second To None
*Year: 2019
*Genre: Heavy/Power Metal
*Country: United Kingdom (IMG:https://metalarea.org/forum/style_images/flags/United%20Kingdom.png)
*Format: mp3@CBR320kbps
*Size: 133MB

Tracklist:
01. Steel Winged Warrior 05:37
02. I Will Not Die Today 05:38
03. The Lawmaker 06:23
04. Chrome Skull Viper 07:22
05. The Art of Death 08:21
06. Darkness Lies Within the Sun 07:30
07. Checkmate... Annihilate! 06:31
08. Legion 10:25
******************************
Total playing time: 57:47



(IMG:https://metalarea.org/images/youtube.png)

Technical info
(IMG:https://metalarea.org/images/spectrogram/2019_Jul/1a201e79e9a5ee3f7785281ba513ffdf.png)
Input File: 2 - I Will Not Die Today.mp3
Channels : 2
Sample Rate : 44100
Precision : 16-bit
Duration : 00:05:38.25 = 14916913 samples = 25368.9 CDDA sectors
File Size : 13.6M
Bit Rate : 322k
Sample Encoding: MPEG audio (layer I, II or III)
Comments :
Title=I Will Not Die Today
Artist=Dream Troll
Album=Second to None
Tracknumber=2
Year=2019
Genre=Metal
Discnumber=1



Register


Go to the top of the page
  Insert nick Quick quote
+Quote Post
 
Start new topic
Replies (1 - 4)
post Jul 11 2019, 16:52:04
Post #2

MDM-Thrash Metal
**************
Group: Металариец
Posts: 8,859
Releases: 667
From: Одесса
On Forums: 12 years 2 months
Thanks: 18604 time(s)
Ukraine


Cloud 320:
Register


Thanks:
Go to the top of the page
  Insert nick Quick quote
+Quote Post
post Jul 11 2019, 20:26:22
Post #3

Ёлд ХеллоВяйне
Group Icon
Group: V.I.P
Posts: 28,004
Releases: 132
From: Питер
On Forums: 12 years 11 months
Thanks: 15881 time(s)
Russian Federation


QUOTE(necroscum @ 11th July 2019 - 15:17:26) *
Heavy/Power Metal


Hard/Heavy
Go to the top of the page
  Insert nick Quick quote
+Quote Post
post Jul 13 2019, 17:36:53
Post #4

Маньяк
**********
Group: Металариец
Posts: 1,244
Releases: 0
From: Russian Federation - St.Petersburg
On Forums: 10 years 7 months
Thanks: 292 time(s)
Russian Federation


ЦИТАТА(Old Vyaine @ Jul 11 2019, 22:26:22) *
Hard/Heavy

Ну да, Битлы и то тяжелее играли! (IMG:style_emoticons/default/1488.gif)
Go to the top of the page
  Insert nick Quick quote
+Quote Post
post Jul 27 2019, 16:23:50
Post #5

Литр
*
Group: Подсевший
Posts: 99
Releases: 2
On Forums: 9 years 3 months
Thanks: 104 time(s)
Russian Federation


FLAC: https://yadi.sk/d/Mrw6el5J0luqeg


Thanks:
(1) Olethros,
Go to the top of the page
  Insert nick Quick quote
+Quote Post

Reply to this topicStart new topic
1 User(s) are reading this topic (1 Guests and 0 Anonymous Users)
0 Members:

 



- Lo-Fi Version Support form
Copyrights and abuse reports form
Time is now: 15th October 2019 - 07:28:09