Welcome Guest ( Log In | Register )

 
Reply to this topicStart new topic
> Pathetic - Rat King (2019), Death Metal
post Jul 11 2019, 13:21:04
Post #1

Правь статус, ####!111
**************
Group: Металариец
Posts: 19,006
Releases: 12823
From: Г.Харьков
On Forums: 7 years 5 months
Thanks: 219831 time(s)
Unknown


(IMG:https://metalarea.org/images/audiocovers/2019_Jul/acov_tid324211_thumb.jpg)

*Artist: Pathetic
*Album: Rat King
*Year: 2019
*Genre: Death Metal
*Country: Canada (IMG:https://metalarea.org/forum/style_images/flags/Canada.png)
*Format: mp3@CBR320kbps
*Size: 126MB

Tracklist:
1. Natural Born Losers 06:31
2. Hamatsa 05:53
3. The Fatal Charade 04:33
4. Going Postal 05:22
5. Rat King 05:43
6. Shetani 05:10
7. Frozen to Death (The Starlight Tours) 04:50
8. Slob 04:54
9. Defecating upon the Grave of the Grand Wizard 05:30
10. Empty Threat 06:28
******************************
Total playing time: 54:54




Extended info
Duncan Chisholm Drums
Spencer Kraft Guitars
AJ Kovar Vocals, Bass


Technical info
(IMG:https://metalarea.org/images/spectrogram/2019_Jul/be3c19b9055b926acf956a37586596e3.png)
Input File: 3 - Fatal Charade.mp3
Channels : 2
Sample Rate : 44100
Precision : 16-bit
Duration : 00:04:32.99 = 12039035 samples = 20474.5 CDDA sectors
File Size : 11.0M
Bit Rate : 324k
Sample Encoding: MPEG audio (layer I, II or III)
Comments :
Title=Fatal Charade
Artist=PATHETIC
Album=Rat King
Tracknumber=3
Year=2019
Genre=Metal
Discnumber=1



Register


Go to the top of the page
  Insert nick Quick quote
+Quote Post

Reply to this topicStart new topic
1 User(s) are reading this topic (1 Guests and 0 Anonymous Users)
0 Members:

 



- Lo-Fi Version Support form
Copyrights and abuse reports form
Time is now: 15th October 2019 - 06:59:37