Welcome Guest ( Log In | Register )

> Leopardeath - Setsugetsufuuka (2019), Melodic Death Metal
post Jul 11 2019, 13:27:47
Post #1

Serial Uploader
Group Icon
Group: V.I.P
Posts: 36,277
Releases: 34471
From: Lithuania
On Forums: 11 years 4 months
Thanks: 400873 time(s)
Lithuania


(IMG:https://metalarea.org/images/audiocovers/2019_Jul/acov_tid324212_thumb.jpg)

*Artist: Leopardeath
*Album: Setsugetsufuuka
*Year: 2019
*Genre: Melodic Death Metal
*Country: Japan (IMG:https://metalarea.org/forum/style_images/flags/Japan.png)
*Format: mp3@CBR320kbps
*Size: 118MB

Tracklist:
01. Maikaze
02. Hanaarashi
03. Beacon of Counterattack
04. Shoukei tensei
05. Sairuiu
06. Diva of moon
07. Koubou no Kanata
08. Oborozuki
09. Senshun no sourou
10. Darkness and Respond
11. Mokushiroku
******************************
Total playing time: 51:22

(IMG:https://metalarea.org/images/myspace.png)

(IMG:https://metalarea.org/images/youtube.png)

Technical info
(IMG:https://metalarea.org/images/spectrogram/2019_Jul/fba4daa62204c4d5ee7a0593a906517d.png)
Input File: 02. Hanaarashi.mp3
Channels : 2
Sample Rate : 44100
Precision : 16-bit
Duration : 00:04:40.05 = 12350249 samples = 21003.8 CDDA sectors
File Size : 11.3M
Bit Rate : 323k
Sample Encoding: MPEG audio (layer I, II or III)
Comments :
Title=Hanaarashi
Artist=Leopardeath
Album=Setsugetsufuuka
Tracknumber=2/11
Year=2019
Genre=9
Discnumber=1/1



Register


Go to the top of the page
  Insert nick Quick quote
+Quote Post
 
Start new topic
Replies (1 - 3)
post Jul 11 2019, 19:28:14
Post #2

Мегаманьяк
***********
Group: Металариец
Posts: 1,859
Releases: 0
From: Украина
On Forums: 10 years 9 months
Thanks: 1099 time(s)
Ukraine


Всегда отношусь к группам их Японии с интересом, и тут ребята оказались молодцами, качественно и довольно таки драйвово, понятно что никто уже Америку не открывает, но слушать приятно и выключать не охота. Кому-то конечно не понравится, кто-то найдёт для этого причины дабы выставить себя знающим человеком, как говорится каждому своё, это всё вкусовщина, играют ребята добротно и интересно и пусть делают это как можно дольше, ведь кому-то это понравится и настроит на позитивный лад, а может и поддержит в трудную минуту, хорошая музыка. (IMG:style_emoticons/default/27.gif)


Thanks:
Go to the top of the page
  Insert nick Quick quote
+Quote Post
post Jul 18 2019, 12:58:18
Post #3

hearer & reader
**************
Group: Металариец
Posts: 8,101
Releases: 105
From: Moscow
On Forums: 12 years 1 month
Thanks: 7589 time(s)
Russian Federation


Если бы не чистоголосые завывания японки, было бы совсем хорошо.


Thanks:
(1) Metalass,
Go to the top of the page
  Insert nick Quick quote
+Quote Post
post Jul 25 2019, 10:55:27
Post #4

Ъ
**************
Group: Металариец
Posts: 9,713
Releases: 9
On Forums: 10 years 9 months
Thanks: 1901 time(s)
Sweden


Баба конечно все окончательно слила, но и без того все третьесортное.
Go to the top of the page
  Insert nick Quick quote
+Quote Post

Reply to this topicStart new topic
1 User(s) are reading this topic (1 Guests and 0 Anonymous Users)
0 Members:

 



- Lo-Fi Version Support form
Copyrights and abuse reports form
Time is now: 15th October 2019 - 07:38:53