Welcome Guest ( Log In | Register )

 
Reply to this topicStart new topic
> Haqq-Ed-Dumm - Apostasia (2019), Heavy Metal
post Jul 11 2019, 13:41:34
Post #1

Serial Uploader
Group Icon
Group: V.I.P
Posts: 36,277
Releases: 34471
From: Lithuania
On Forums: 11 years 4 months
Thanks: 400872 time(s)
Lithuania


(IMG:https://metalarea.org/images/audiocovers/2019_Jul/acov_tid324213_thumb.jpg)

*Artist: Haqq-Ed-Dumm
*Album: Apostasia
*Year: 2019
*Genre: Heavy Metal
*Country: Mexico (IMG:https://metalarea.org/forum/style_images/flags/Mexico.png)
*Format: mp3@CBR320kbps
*Size: 131MB

Tracklist:
01. Quien es el Anticristo
02. Y en la Tierra
03. Bautismo de Sangre
04. Simbolos de Fe
05. Luz en el Averno
06. Exterminatus
07. Testigo Del Mal
08. Concebido Para Matar
09. Stauros
10. Retrato Del Miedo
******************************
Total playing time: 57:02

(IMG:https://metalarea.org/images/myspace.png)


Technical info
(IMG:https://metalarea.org/images/spectrogram/2019_Jul/e4aeeca44fda21bad0e1d4cc07aa86b0.png)
Input File: 01 __Quien es el Anticristo.mp3
Channels : 2
Sample Rate : 44100
Precision : 16-bit
Duration : 00:06:09.21 = 16282249 samples = 27690.9 CDDA sectors
File Size : 15.3M
Bit Rate : 331k
Sample Encoding: MPEG audio (layer I, II or III)
Comments :
Title=?Quien es el Anticristo?
Artist=H.E.D, Haqq Ed Dumm
Album=Apostasia
Tracknumber=1/10
Year=2019



Register


Go to the top of the page
  Insert nick Quick quote
+Quote Post

Reply to this topicStart new topic
1 User(s) are reading this topic (1 Guests and 0 Anonymous Users)
0 Members:

 



- Lo-Fi Version Support form
Copyrights and abuse reports form
Time is now: 15th October 2019 - 07:00:14