Welcome Guest ( Log In | Register )

 
Reply to this topicStart new topic
> Glasya - Heaven's Demise (2019), Symphonic Metal
post Jul 11 2019, 13:48:47
Post #1

Serial Uploader
Group Icon
Group: V.I.P
Posts: 35,606
Releases: 33815
From: Lithuania
On Forums: 11 years 1 month
Thanks: 389357 time(s)
Lithuania


(IMG:https://metalarea.org/images/audiocovers/2019_Jul/acov_tid324214_thumb.jpg)

*Artist: Glasya
*Album: Heaven's Demise
*Year: 2019
*Genre: Symphonic Metal
*Country: Portugal (IMG:https://metalarea.org/forum/style_images/flags/Portugal.png)
*Format: mp3@CBR320kbps
*Size: 115MB

Tracklist:
01. Heaven's Demise
02. Ignis Sanctus
03. Coronation of a Beggar
04. Glasya
05. Eternal Winter
06. Birth of an Angel
07. The Last Dying Sun
08. Neverland
09. No Exit from Myself
10. A Thought About You
******************************
Total playing time: 50:02


(IMG:https://metalarea.org/images/youtube.png)

Technical info
(IMG:https://metalarea.org/images/spectrogram/2019_Jul/b28bb62d13a4f0a2b10414c01ae4f108.png)
Input File: 2 - Ignis Sanctus.mp3
Channels : 2
Sample Rate : 44100
Precision : 16-bit
Duration : 00:05:11.40 = 13732564 samples = 23354.7 CDDA sectors
File Size : 12.5M
Bit Rate : 321k
Sample Encoding: MPEG audio (layer I, II or III)
Comments :
Title=Ignis Sanctus
Artist=Glasya
Album=Heaven's Demise
Tracknumber=2
Year=2019
Genre=Rock/Hard Rock/Metal
Discnumber=1



Register


Go to the top of the page
  Insert nick Quick quote
+Quote Post

Reply to this topicStart new topic
1 User(s) are reading this topic (1 Guests and 0 Anonymous Users)
0 Members:

 



- Lo-Fi Version Support form
Copyrights and abuse reports form
Time is now: 17th July 2019 - 01:53:08