Welcome Guest ( Log In | Register )

> Releases Upload / Добавление релизов

Добавить релиз тут / Click here to add release
Рекомендованные обменники / Recommended file shares

> Stavesail - The Anchor//The Construct (2019), Technical Death Metal/Deathcore
post Jul 11 2019, 14:04:43
Post #1

Serial Uploader
Group Icon
Group: V.I.P
Posts: 35,606
Releases: 33815
From: Lithuania
On Forums: 11 years 1 month
Thanks: 389356 time(s)
Lithuania


(IMG:https://metalarea.org/images/audiocovers/2019_Jul/acov_tid324215_thumb.jpg)

*Artist: Stavesail
*Album: The Anchor//The Construct
*Year: 2019
*Genre: Technical Death Metal/Deathcore
*Country: United States (IMG:https://metalarea.org/forum/style_images/flags/United%20States.png)
*Format: mp3@CBR320kbps
*Size: 93MB

Tracklist:
01. Ephemeral 05:09
02. Oblivion 03:28
03. Trust No One 05:47
04. The Anchor 01:09
05. Drowning in the Wake (feat. Adam Blea) 04:30
06. Burial 05:10
07. Lost 04:07
08. Above the Broken 05:12
09. The Construct 02:44
10. Take the Day 03:12
******************************
Total playing time: 40:28


(IMG:https://metalarea.org/images/youtube.png)

Technical info
(IMG:https://metalarea.org/images/spectrogram/2019_Jul/dd4aa9f899eefe9a0aaa57b21528d374.png)
Input File: 2 - Oblivion.mp3
Channels : 2
Sample Rate : 44100
Precision : 16-bit
Duration : 00:03:28.10 = 9177298 samples = 15607.6 CDDA sectors
File Size : 8.37M
Bit Rate : 322k
Sample Encoding: MPEG audio (layer I, II or III)
Comments :
Title=Oblivion
Artist=Stavesail
Album=The Anchor // the Construct
Tracknumber=2
Year=2019
Genre=Metal
Discnumber=1



Register


Go to the top of the page
  Insert nick Quick quote
+Quote Post
 
Start new topic
Replies (1 - 1)
post Jul 13 2019, 13:41:12
Post #2

Group: Подсевший
Posts: 35
Releases: 0
From: Belarus
On Forums: 9 years 1 week
Thanks: 8 time(s)
Belarus


Послушаем что за оно,спасибо!
Go to the top of the page
  Insert nick Quick quote
+Quote Post

Reply to this topicStart new topic
1 User(s) are reading this topic (1 Guests and 0 Anonymous Users)
0 Members:

 



- Lo-Fi Version Support form
Copyrights and abuse reports form
Time is now: 17th July 2019 - 01:20:55