Welcome Guest ( Log In | Register )

> Releases Upload / Добавление релизов

Добавить релиз тут / Click here to add release
Рекомендованные обменники / Recommended file shares

> Envenomed - The Walking Shred (2019), Melodic Thrash Metal
post Jul 11 2019, 14:14:03
Post #1

Правь статус, ####!111
**************
Group: Металариец
Posts: 17,750
Releases: 12037
From: Г.Харьков
On Forums: 7 years 2 months
Thanks: 202086 time(s)
Unknown


(IMG:https://metalarea.org/images/audiocovers/2019_Jul/acov_tid324216_thumb.jpg)

*Artist: Envenomed
*Album: The Walking Shred
*Year: 2019
*Genre: Melodic Thrash Metal
*Country: Australia (IMG:https://metalarea.org/forum/style_images/flags/Australia.png)
*Format: mp3@CBR320kbps
*Size: 131MB

Tracklist:
1. The Walking Shred 00:50
2. Abandon Hope 04:33
3. The Dead 05:06
4. Aware 05:39
5. Fate Closes the Door 06:47
6. Rebellion 05:40
7. Through the Cold 05:25
8. The Haunting 05:02
9. All That Remains 05:40
10. Sacrifice 05:38
11. Are You Gonna Go My Way 03:21
12. The Haunted 03:09
******************************
Total playing time: 56:50



Extended info
Mav Guitars, Vocals
Liam Wagener Bass
Adam Bartleson Drums
Brendan Farrugia Guitars (lead)


Technical info
(IMG:https://metalarea.org/images/spectrogram/2019_Jul/c34a109108f3c3570f5d323ddd4c3c28.png)
Input File: 3 - The Dead.mp3
Channels : 2
Sample Rate : 44100
Precision : 16-bit
Duration : 00:05:05.60 = 13476828 samples = 22919.8 CDDA sectors
File Size : 12.3M
Bit Rate : 322k
Sample Encoding: MPEG audio (layer I, II or III)
Comments :
Title=The Dead
Artist=Envenomed
Album=The Walking Shred
Tracknumber=3
Year=2019
Genre=Rock/Hard Rock/Metal
Discnumber=1



Register


Go to the top of the page
  Insert nick Quick quote
+Quote Post
 
Start new topic
Replies (1 - 3)
post Jul 11 2019, 15:56:04
Post #2

Правь статус, ####!111
**************
Group: Металариец
Posts: 17,750
Releases: 12037
From: Г.Харьков
On Forums: 7 years 2 months
Thanks: 202086 time(s)
Unknown



Cloud Mail 320
Register


Thanks:
Go to the top of the page
  Insert nick Quick quote
+Quote Post
post Jul 11 2019, 15:59:52
Post #3

Правь статус, ####!111
**************
Group: Металариец
Posts: 41,109
Releases: 605
On Forums: 10 years 1 month
Thanks: 31778 time(s)
Russian Federation


Хоть я и обожаю олдскульно-инспирированные обложки трэшаров 80-х, но тут сюжет хорош (мош между зомбаками и мяталистом), но вот более шротной реализации давно я не лицерел.

Андрей Бузиков недорого же берёт, ну наняли бы его, коль на Репку не хватило.


Thanks:
(1) Emm Human,
Go to the top of the page
  Insert nick Quick quote
+Quote Post
post Jul 12 2019, 19:48:43
Post #4

Правь статус, ####!111
**************
Group: Металариец
Posts: 3,768
Releases: 0
From: Одесса
On Forums: 11 years 4 months
Thanks: 1838 time(s)
Unknown


nothing exciting (IMG:style_emoticons/default/21.gif)
Go to the top of the page
  Insert nick Quick quote
+Quote Post

Reply to this topicStart new topic
1 User(s) are reading this topic (1 Guests and 0 Anonymous Users)
0 Members:

 



- Lo-Fi Version Support form
Copyrights and abuse reports form
Time is now: 17th July 2019 - 02:01:43