Welcome Guest ( Log In | Register )

> Creationism Denied - Piercing Darkness [ep] (2019), Death Metal
post Jul 11 2019, 14:23:24
Post #1

Serial Uploader
Group Icon
Group: V.I.P
Posts: 36,277
Releases: 34471
From: Lithuania
On Forums: 11 years 4 months
Thanks: 400873 time(s)
Lithuania


(IMG:https://metalarea.org/images/audiocovers/2019_Jul/acov_tid324218_thumb.jpg)

*Artist: Creationism Denied
*Album: Piercing Darkness [ep]
*Year: 2019
*Genre: Death Metal
*Country: Brazil (IMG:https://metalarea.org/forum/style_images/flags/Brazil.png)
*Format: mp3@CBR320kbps
*Size: 51MB

Tracklist:
01. Sworn of Death
02. Dead Flesh Architect
03. Run, Hide, Pray!
04. Piercing Darkness
05. The Animal
06. Breeding the Plague
07. Christ the Deceiver
******************************
Total playing time: 22:11



Technical info
(IMG:https://metalarea.org/images/spectrogram/2019_Jul/1c7b4bd9e161b7af7f17619be1b9b7bd.png)
Input File: 02. Dead Flesh Architect.mp3
Channels : 2
Sample Rate : 44100
Precision : 16-bit
Duration : 00:03:05.25 = 8169393 samples = 13893.5 CDDA sectors
File Size : 7.66M
Bit Rate : 331k
Sample Encoding: MPEG audio (layer I, II or III)
Comments :
Title=Dead Flesh Architect
Artist=Creationism Denied
Album=Piercing Darkness
Tracknumber=2/7
Year=2019
Genre=9
Discnumber=1/1



Register


Go to the top of the page
  Insert nick Quick quote
+Quote Post
 
Start new topic
Replies (1 - 1)
post Jul 11 2019, 16:35:17
Post #2

hearer & reader
**************
Group: Металариец
Posts: 8,101
Releases: 105
From: Moscow
On Forums: 12 years 1 month
Thanks: 7589 time(s)
Russian Federation


https://www.youtube.com/watch?v=ln7x_5PwSSU


Thanks:
Go to the top of the page
  Insert nick Quick quote
+Quote Post

Reply to this topicStart new topic
1 User(s) are reading this topic (1 Guests and 0 Anonymous Users)
0 Members:

 



- Lo-Fi Version Support form
Copyrights and abuse reports form
Time is now: 15th October 2019 - 08:12:18