Welcome Guest ( Log In | Register )

> Burial Remains - Trinity Of Deception (2019), Old School Death Metal
post Jul 11 2019, 14:25:53
Post #1

Правь статус, ####!111
**************
Group: Металариец
Posts: 18,597
Releases: 12591
From: Г.Харьков
On Forums: 7 years 4 months
Thanks: 213285 time(s)
Unknown


(IMG:https://metalarea.org/images/audiocovers/2019_Jul/acov_tid324219_thumb.jpg)

*Artist: Burial Remains
*Album: Trinity Of Deception
*Year: 2019
*Genre: Old School Death Metal
*Country: Netherlands (IMG:https://metalarea.org/forum/style_images/flags/Netherlands.png)
*Format: mp3@CBR320kbps
*Size: 55MB

Tracklist:
01. Crucifixion of the Vanquished
02. They Crawl
03. Trinity of Deception
04. March of the Undead
05. Burn with Me
06. Days of Dread
07. Tormentor
******************************
Total playing time: 25:15




Extended info
Sven - Vocals (FLESHCRAWL)
Wim - Guitar (GRIM FATE, BOAL)
Philippus - Guitar and bass (DIMAEON, BOAL)
Danny - Drums (DISINTEGRATE, DIMAEON)



Technical info
(IMG:https://metalarea.org/images/spectrogram/2019_Jul/fe2c2ff66258ea94084723aaa387ba87.png)
Input File: 04. March of the Undead.mp3
Channels : 2
Sample Rate : 44100
Precision : 16-bit
Duration : 00:03:25.34 = 9055362 samples = 15400.3 CDDA sectors
File Size : 8.47M
Bit Rate : 330k
Sample Encoding: MPEG audio (layer I, II or III)
Comments :
Title=March of the Undead
Artist=Burial Remains
Album=Trinity of Deception
Tracknumber=4/7
Year=2019
Genre=9
Discnumber=1/1



Register


Go to the top of the page
  Insert nick Quick quote
+Quote Post
 
Start new topic
Replies (1 - 3)
post Jul 11 2019, 15:52:31
Post #2

Правь статус, ####!111
**************
Group: Металариец
Posts: 18,597
Releases: 12591
From: Г.Харьков
On Forums: 7 years 4 months
Thanks: 213285 time(s)
Unknown


Cloud Mail 320
Register



Go to the top of the page
  Insert nick Quick quote
+Quote Post
post Jul 11 2019, 15:54:44
Post #3

Сектант технодро4чер
**************
Group: Металариец
Posts: 5,480
Releases: 143
From: Тимчасово окупована територія
On Forums: 11 years 1 month
Thanks: 5691 time(s)
Ukraine


Хорошо, но маловато.
Go to the top of the page
  Insert nick Quick quote
+Quote Post
post Jul 11 2019, 19:00:32
Post #4

Crush The Enemies
**************
Group: Металариец
Posts: 4,234
Releases: 0
From: Moscow
On Forums: 10 years 2 weeks
Thanks: 2419 time(s)
Russian Federation



Дебютный релиз по стопам скандинавских товарищей - на вокале Sven Gross,фронтмен из немецкого культового дэт-коллектива FLESHCRAWL (IMG:style_emoticons/default/dwarf-1.gif) (IMG:style_emoticons/default/dwarf-1.gif) (IMG:style_emoticons/default/dwarf-1.gif)

P.S Всё по канонам олдскульной шведятины - но особого размаха и хитовости не ощутил,хотя слушается неплохо.


Thanks:
(1) AHBAnep,
Go to the top of the page
  Insert nick Quick quote
+Quote Post

Reply to this topicStart new topic
2 User(s) are reading this topic (2 Guests and 0 Anonymous Users)
0 Members:

 



- Lo-Fi Version Support form
Copyrights and abuse reports form
Time is now: 22nd September 2019 - 00:25:30