Welcome Guest ( Log In | Register )

 
Reply to this topicStart new topic
> Riffcoven - Cursed [ep] (2019), Stoner/Doom Metal
post Jul 11 2019, 14:34:40
Post #1

Serial Uploader
Group Icon
Group: V.I.P
Posts: 36,609
Releases: 34785
From: Lithuania
On Forums: 11 years 6 months
Thanks: 407400 time(s)
Lithuania


(IMG:https://metalarea.org/images/audiocovers/2019_Jul/acov_tid324220_thumb.jpg)

*Artist: Riffcoven
*Album: Cursed [ep]
*Year: 2019
*Genre: Stoner/Doom Metal
*Country: Brazil (IMG:https://metalarea.org/forum/style_images/flags/Brazil.png)
*Format: mp3@CBR320kbps
*Size: 42MB

Tracklist:
01. Feiticeiros Do Riff 05:59
02. Cursed 05:47
03. Dope Riders 06:35
******************************
Total playing time: 18:21



Technical info
(IMG:https://metalarea.org/images/spectrogram/2019_Jul/4665afc6df33267350f4817d1a3b2665.png)
Input File: 02. Cursed.mp3
Channels : 2
Sample Rate : 44100
Precision : 16-bit
Duration : 00:05:47.42 = 15321398 samples = 26056.8 CDDA sectors
File Size : 14.0M
Bit Rate : 323k
Sample Encoding: MPEG audio (layer I, II or III)
Comments :
Title=Cursed
Artist=Riffcoven
Album=Cursed
Tracknumber=2/3
Year=2019
Genre=17
Discnumber=1/1



Register


Go to the top of the page
  Insert nick Quick quote
+Quote Post

Reply to this topicStart new topic
1 User(s) are reading this topic (1 Guests and 0 Anonymous Users)
0 Members:

 



- Lo-Fi Version Support form
Copyrights and abuse reports form
Time is now: 12th December 2019 - 17:32:18