Welcome Guest ( Log In | Register )

> The Night Eternal - The Night Eternal [ep] (2019), Heavy Metal
post Jul 11 2019, 14:43:29
Post #1

Serial Uploader
Group Icon
Group: V.I.P
Posts: 36,277
Releases: 34471
From: Lithuania
On Forums: 11 years 4 months
Thanks: 400872 time(s)
Lithuania


(IMG:https://metalarea.org/images/audiocovers/2019_Jul/acov_tid324221_thumb.jpg)

*Artist: The Night Eternal
*Album: The Night Eternal [ep]
*Year: 2019
*Genre: Heavy Metal
*Country: Germany (IMG:https://metalarea.org/forum/style_images/flags/Germany.png)
*Format: mp3@CBR320kbps
*Size: 40MB

Tracklist:
01. Eternal Night 05:05
02. Mark of Kain 04:51
03. Vindicta 04:18
04. (Take These) Chains (Judas Priest cover) 03:10
******************************
Total playing time: 17:24



Technical info
(IMG:https://metalarea.org/images/spectrogram/2019_Jul/86685284b50dc2bf2ec55553d3975968.png)
Input File: 02. Mark of Kain.mp3
Channels : 2
Sample Rate : 44100
Precision : 16-bit
Duration : 00:04:51.57 = 12858281 samples = 21867.8 CDDA sectors
File Size : 11.8M
Bit Rate : 322k
Sample Encoding: MPEG audio (layer I, II or III)
Comments :
Title=Mark of Kain
Artist=The Night Eternal
Album=The Night Eternal
Tracknumber=2/4
Year=2019
Genre=9
Discnumber=1/1



Register


Go to the top of the page
  Insert nick Quick quote
+Quote Post
 
Start new topic
Replies (1 - 2)
post Jul 28 2019, 10:57:18
Post #2

Перевозчик
**************
Group: Металариец
Posts: 3,039
Releases: 0
On Forums: 11 years 3 months
Thanks: 664 time(s)
Russian Federation




Thanks:
(1) artscald,
Go to the top of the page
  Insert nick Quick quote
+Quote Post
post Jul 28 2019, 16:39:28
Post #3

MDM-Thrash Metal
**************
Group: Металариец
Posts: 8,859
Releases: 667
From: Одесса
On Forums: 12 years 2 months
Thanks: 18602 time(s)
Ukraine


Go to the top of the page
  Insert nick Quick quote
+Quote Post

Reply to this topicStart new topic
1 User(s) are reading this topic (1 Guests and 0 Anonymous Users)
0 Members:

 



- Lo-Fi Version Support form
Copyrights and abuse reports form
Time is now: 15th October 2019 - 07:02:41