Welcome Guest ( Log In | Register )

> Releases Upload / Добавление релизов

Добавить релиз тут / Click here to add release
Рекомендованные обменники / Recommended file shares

 
Reply to this topicStart new topic
> Kilonova - Omnicide [ep] (2019), Thrash Metal
post Jul 11 2019, 14:43:42
Post #1

Правь статус, ####!111
**************
Group: Металариец
Posts: 17,750
Releases: 12037
From: Г.Харьков
On Forums: 7 years 2 months
Thanks: 202086 time(s)
Unknown


(IMG:https://metalarea.org/images/audiocovers/2019_Jul/acov_tid324222_thumb.jpg)

*Artist: Kilonova
*Album: Omnicide [ep]
*Year: 2019
*Genre: Thrash Metal
*Country: United Kingdom (IMG:https://metalarea.org/forum/style_images/flags/United%20Kingdom.png)
*Format: mp3@CBR320kbps
*Size: 45MB

Tracklist:
01. Descent
02. Straight to Hell
03. Hang the Hangman
04. Own Enemy
05. Blood in the Water
06. Ivory Tower
******************************
Total playing time: 21:22



Extended info
Ellen Hill - Vocals
Steve Rouse - Drums
Joe Bambrick - Bass
Jonny Sloan - Guitar


Technical info
(IMG:https://metalarea.org/images/spectrogram/2019_Jul/196f8db7cd7ca0ed308650eb934cdb0e.png)
Input File: 04. Own Enemy.mp3
Channels : 2
Sample Rate : 44100
Precision : 16-bit
Duration : 00:03:40.10 = 9706278 samples = 16507.3 CDDA sectors
File Size : 8.86M
Bit Rate : 322k
Sample Encoding: MPEG audio (layer I, II or III)
Comments :
Title=Own Enemy
Artist=Kilonova
Album=Omnicide
Tracknumber=4/6
Year=2019
Genre=9
Discnumber=1/1



Register


Go to the top of the page
  Insert nick Quick quote
+Quote Post

Reply to this topicStart new topic
1 User(s) are reading this topic (1 Guests and 0 Anonymous Users)
0 Members:

 



- Lo-Fi Version Support form
Copyrights and abuse reports form
Time is now: 17th July 2019 - 01:59:25