Welcome Guest ( Log In | Register )

> Releases Upload / Добавление релизов

Добавить релиз тут / Click here to add release
Рекомендованные обменники / Recommended file shares

> Luna - Luna (2019), Symphonic Funeral Doom/Death Metal (D6)
post Jul 11 2019, 14:51:59
Post #1

Serial Uploader
Group Icon
Group: V.I.P
Posts: 35,606
Releases: 33815
From: Lithuania
On Forums: 11 years 1 month
Thanks: 389356 time(s)
Lithuania


(IMG:https://metalarea.org/images/audiocovers/2019_Jul/acov_tid324223_thumb.jpg)

*Artist: Luna
*Album: Luna
*Year: 2019
*Genre: Symphonic Funeral Doom/Death Metal
*Country: Ukraine (IMG:https://metalarea.org/forum/style_images/flags/Ukraine.png)
*Format: mp3@CBR320kbps
*Size: 115MB

Tracklist:
01. I
02. II (orchestral)
03. II
******************************
Total playing time: 50:04

Preview 1


Technical info
(IMG:https://metalarea.org/images/spectrogram/2019_Jul/d11d247d109c346714f6cb4a450df0d0.png)
Input File: 03. Pt. 2.mp3
Channels : 2
Sample Rate : 44100
Precision : 16-bit
Duration : 00:16:48.75 = 44485919 samples = 75656.3 CDDA sectors
File Size : 40.4M
Bit Rate : 320k
Sample Encoding: MPEG audio (layer I, II or III)
Comments :
Title=Pt. 2
Artist=Luna
Album=Luna
Tracknumber=3/3
Year=2019
Genre=9
Discnumber=1/1



Register


Go to the top of the page
  Insert nick Quick quote
+Quote Post
 
Start new topic
Replies (1 - 3)
post Jul 11 2019, 16:36:33
Post #2

Кожаный ублюдок
**************
Group: Металариец
Posts: 3,070
Releases: 6
From: Алчевск (early) Некросибирск (now)
On Forums: 10 years 2 months
Thanks: 1817 time(s)
Russian Federation


Я так понимаю снова инструментал?
Go to the top of the page
  Insert nick Quick quote
+Quote Post
post Jul 11 2019, 17:05:29
Post #3

Правь статус, ####!111
**************
Group: Металариец
Posts: 41,109
Releases: 605
On Forums: 10 years 1 month
Thanks: 31778 time(s)
Russian Federation


Один из самых величественных проектов, играющих данную разновидность метал музыки.

Великолепно (IMG:style_emoticons/default/smile1.gif)
Go to the top of the page
  Insert nick Quick quote
+Quote Post
post Jul 12 2019, 07:49:58
Post #4

Русь Понад Усе!
**************
Group: Металариец
Posts: 4,192
Releases: 15
From: Украина
On Forums: 11 years 10 months
Thanks: 1631 time(s)
Ukraine


Очень Прекрасно (IMG:style_emoticons/default/bye.gif)
Go to the top of the page
  Insert nick Quick quote
+Quote Post

Reply to this topicStart new topic
1 User(s) are reading this topic (1 Guests and 0 Anonymous Users)
0 Members:

 



- Lo-Fi Version Support form
Copyrights and abuse reports form
Time is now: 17th July 2019 - 01:25:41