Welcome Guest ( Log In | Register )

> Releases Upload / Добавление релизов

Добавить релиз тут / Click here to add release
Рекомендованные обменники / Recommended file shares

> Sikfuk - Diarrhea Duet (2019), Brutal Death Metal (D)
post Jul 11 2019, 14:59:58
Post #1

Serial Uploader
Group Icon
Group: V.I.P
Posts: 35,639
Releases: 33847
From: Lithuania
On Forums: 11 years 1 month
Thanks: 389941 time(s)
Lithuania


(IMG:https://metalarea.org/images/audiocovers/2019_Jul/acov_tid324224_thumb.jpg)

*Artist: Sikfuk
*Album: Diarrhea Duet
*Year: 2019
*Genre: Brutal Death Metal
*Country: Ukraine (IMG:https://metalarea.org/forum/style_images/flags/Ukraine.png)
*Format: mp3@CBR320kbps
*Size: 64MB

Tracklist:
01. Fecal Position
02. Pee Hole vs. Skene Gland
03. Shit Limp
04. Diarrhea for Days
05. Porn Hub Whiskey Dick
06. Toxic Twat 01:57
07. Poo Sack Jack / Shit Shake Jake
08. Booger Fingers
09. Poopa Tupa Scat Dance
10. Poo Poo Pee Pee
11. Audio Bitch
12. Shit Covered Dildo
13. Gizmo Caca
14. Monster Ass Menstrual Shits
15. Menstrual Cup Massacre
******************************
Total playing time: 27:51

(IMG:https://metalarea.org/images/myspace.png)



(IMG:https://metalarea.org/images/youtube.png)

Technical info
(IMG:https://metalarea.org/images/spectrogram/2019_Jul/40e7845c6852308aaba65abad8137c09.png)
Input File: 02. Pee Hole vs. Skene Gland.mp3
Channels : 2
Sample Rate : 44100
Precision : 16-bit
Duration : 00:01:21.09 = 3576113 samples = 6081.82 CDDA sectors
File Size : 3.51M
Bit Rate : 346k
Sample Encoding: MPEG audio (layer I, II or III)
Comments :
Title=Pee Hole vs. Skene Gland
Artist=Sikfuk
Album=Diarrhea Duet
Tracknumber=2/15
Year=2019
Genre=9
Discnumber=1/1



Register


Go to the top of the page
  Insert nick Quick quote
+Quote Post
 
Start new topic
Replies (1 - 1)
post Jul 12 2019, 16:05:37
Post #2

...
**************
Group: Металариец
Posts: 4,887
Releases: 512
From: МОРсквы
On Forums: 12 years 9 months
Thanks: 7476 time(s)
Russian Federation


украина?!
Go to the top of the page
  Insert nick Quick quote
+Quote Post

Reply to this topicStart new topic
2 User(s) are reading this topic (2 Guests and 0 Anonymous Users)
0 Members:

 



- Lo-Fi Version Support form
Copyrights and abuse reports form
Time is now: 22nd July 2019 - 06:36:11