Welcome Guest ( Log In | Register )

> Releases Upload / Добавление релизов

Добавить релиз тут / Click here to add release
Рекомендованные обменники / Recommended file shares

> Hemisferio - Anacronía (2019), Heavy Metal
post Jul 11 2019, 15:08:37
Post #1

Serial Uploader
Group Icon
Group: V.I.P
Posts: 35,820
Releases: 34028
From: Lithuania
On Forums: 11 years 2 months
Thanks: 393249 time(s)
Lithuania


(IMG:https://metalarea.org/images/audiocovers/2019_Jul/acov_tid324225_thumb.jpg)

*Artist: Hemisferio
*Album: Anacronía
*Year: 2019
*Genre: Heavy Metal
*Country: Chile (IMG:https://metalarea.org/forum/style_images/flags/Chile.png)
*Format: mp3@CBR320kbps
*Size: 102MB

Tracklist:
01. Tres sombras 08:21
02. Las palabras ya no existen 04:12
03. Hasta encontrarte 05:07
04. En ausencia 03:55
05. Denia Op.2 03:07
06. Vestigios 04:23
07. La novela taciturna 05:17
08. Visicitud 04:11
09. Sueños de un futuro 05:50
******************************
Total playing time: 44:23



(IMG:https://metalarea.org/images/youtube.png)

Technical info
(IMG:https://metalarea.org/images/spectrogram/2019_Jul/f2b04c0a537d5a346dff83e07910c00a.png)
Input File: 02. Las Palabras Ya No Existen.mp3
Channels : 2
Sample Rate : 44100
Precision : 16-bit
Duration : 00:04:12.05 = 11115229 samples = 18903.5 CDDA sectors
File Size : 10.2M
Bit Rate : 323k
Sample Encoding: MPEG audio (layer I, II or III)
Comments :
Title=Las Palabras Ya No Existen
Artist=Hemisferio
Album=Anacronía
Tracknumber=2/9
Year=2019
Genre=9
Discnumber=1/1



Register


Go to the top of the page
  Insert nick Quick quote
+Quote Post
 
Start new topic
Replies (1 - 1)
post Jul 11 2019, 16:55:53
Post #2

MDM-Thrash Metal
**************
Group: Металариец
Posts: 8,529
Releases: 564
From: Одесса
On Forums: 12 years 1 week
Thanks: 16562 time(s)
Ukraine


Cloud 320:
Register


Thanks:
Go to the top of the page
  Insert nick Quick quote
+Quote Post

Reply to this topicStart new topic
1 User(s) are reading this topic (1 Guests and 0 Anonymous Users)
0 Members:

 



- Lo-Fi Version Support form
Copyrights and abuse reports form
Time is now: 20th August 2019 - 09:18:44