Welcome Guest ( Log In | Register )

> Releases Upload / Добавление релизов

Добавить релиз тут / Click here to add release
Рекомендованные обменники / Recommended file shares

 
Reply to this topicStart new topic
> Spiritual Kaos - Stratagem [ep] (2013), Technical Brutal Death Metal
post Jul 11 2019, 15:13:36
Post #1

Cultist
**************
Group: Металариец
Posts: 3,770
Releases: 1219
From: Koenigsberg
On Forums: 12 years 7 months
Thanks: 7230 time(s)
Russian Federation


(IMG:http://metalarea.org/images/audiocovers/2019_Jul/acov_tid324226_thumb.jpg)

*Artist: Spiritual Kaos
*Album: Stratagem [ep]
*Year: 2013
*Genre: Technical Brutal Death Metal
*Country: Argentina (IMG:http://metalarea.org/forum/style_images/flags/Argentina.png)
*Format: mp3@CBR320kbps
*Size: 23MB

Tracklist:
1. The Alien Psyche (Intro) 03:16
2. Generated Degeneration 03:17
3. Conceived to Kill 03:03
******************************
Total playing time: 9:36



Technical info
(IMG:http://metalarea.org/images/spectrogram/2019_Jul/e6fb035835e7e446ddf37d1b24624b90.png)
Input File: 02 - Generated Degeneration.mp3
Channels : 2
Sample Rate : 44100
Precision : 16-bit
Duration : 00:03:17.34 = 8702826 samples = 14800.7 CDDA sectors
File Size : 8.04M
Bit Rate : 326k
Sample Encoding: MPEG audio (layer I, II or III)
Comments :
Title=Generated Degeneration
Artist=Spiritual Kaos
Album=Stratagem EP
Tracknumber=2
Year=2013
Genre=Brutal Death Metal / Technical



Register


Go to the top of the page
  Insert nick Quick quote
+Quote Post

Reply to this topicStart new topic
2 User(s) are reading this topic (2 Guests and 0 Anonymous Users)
0 Members:

 



- Lo-Fi Version Support form
Copyrights and abuse reports form
Time is now: 22nd August 2019 - 14:50:05