Welcome Guest ( Log In | Register )

> Releases Upload / Добавление релизов

Добавить релиз тут / Click here to add release
Рекомендованные обменники / Recommended file shares

 
Reply to this topicStart new topic
> Blacks0n - Cry For Inspiration [ep] (2019), Deathcore
post Jul 11 2019, 15:27:14
Post #1

Serial Uploader
Group Icon
Group: V.I.P
Posts: 35,872
Releases: 34079
From: Lithuania
On Forums: 11 years 2 months
Thanks: 393858 time(s)
Lithuania


(IMG:https://metalarea.org/images/audiocovers/2019_Jul/acov_tid324228_thumb.jpg)

*Artist: Blacks0n
*Album: Cry For Inspiration [ep]
*Year: 2019
*Genre: Deathcore
*Country: Italy (IMG:https://metalarea.org/forum/style_images/flags/Italy.png)
*Format: mp3@CBR320kbps
*Size: 38MB

Tracklist:
01. A Forbidden Pleasure
02. On the Wings of Defeat
03. Nowhere to Run
04. Ears on Distant Stars
05. The Vent
******************************
Total playing time: 16:31



Technical info
(IMG:https://metalarea.org/images/spectrogram/2019_Jul/9ed8893be2c3aa99101e6149e97e1423.png)
Input File: 02. On the Wings of Defeat.mp3
Channels : 2
Sample Rate : 44100
Precision : 16-bit
Duration : 00:03:40.07 = 9705087 samples = 16505.2 CDDA sectors
File Size : 8.85M
Bit Rate : 322k
Sample Encoding: MPEG audio (layer I, II or III)
Comments :
Title=On the Wings of Defeat
Artist=Blacks0n
Album=Cry for Inspiration
Tracknumber=2/5
Year=2019
Genre=9
Discnumber=1/1



Register


Go to the top of the page
  Insert nick Quick quote
+Quote Post

Reply to this topicStart new topic
1 User(s) are reading this topic (1 Guests and 0 Anonymous Users)
0 Members:

 



- Lo-Fi Version Support form
Copyrights and abuse reports form
Time is now: 24th August 2019 - 17:13:02