Welcome Guest ( Log In | Register )

> Jasun Tipton - Seduction (2005), Instrumental Progressive Metal
post Jul 11 2019, 16:42:39
Post #1

Cultist
**************
Group: Металариец
Posts: 4,278
Releases: 1330
From: Koenigsberg
On Forums: 13 years 3 weeks
Thanks: 8644 time(s)
Russian Federation


(IMG:http://metalarea.org/images/audiocovers/2019_Jul/acov_tid324234_thumb.jpg)

*Artist: Jasun Tipton
*Album: Seduction
*Year: 2005
*Genre: Instrumental Progressive Metal
*Country: United States (IMG:http://metalarea.org/forum/style_images/flags/United%20States.png)
*Format: mp3@CBR320kbps
*Size: 111MB

Tracklist:
1. Tears From the Moon 04:35
2. Seduction 05:27
3. Question & Answer 06:02
4. A Rise of Tension 03:13
5. Christina 04:24
6. Falling From the Sky 04:44
7. The Way You Move 03:11
8. Slow Dancing 04:43
9. Sunrise 02:10
10. Ya La Blu Tibia 03:36
11. Question & Answer II 06:01
******************************
Total playing time: 48:06

Technical info
(IMG:http://metalarea.org/images/spectrogram/2019_Jul/4dd63b10e7d4afc1e99ea4e992753866.png)
Input File: 02 - Seduction.mp3
Channels : 2
Sample Rate : 44100
Precision : 16-bit
Duration : 00:05:27.49 = 14442397 samples = 24561.9 CDDA sectors
File Size : 13.2M
Bit Rate : 323k
Sample Encoding: MPEG audio (layer I, II or III)
Comments :
Title=Seduction
Artist=Jasun Tipton
Album=Seduction
Tracknumber=02/11
Year=2005
Genre=Progressive Metal / Instrumental



Register


Go to the top of the page
  Insert nick Quick quote
+Quote Post
 
Start new topic
Replies (1 - 9)
post Jul 12 2019, 09:14:42
Post #2

Cultist
**************
Group: Металариец
Posts: 4,278
Releases: 1330
From: Koenigsberg
On Forums: 13 years 3 weeks
Thanks: 8644 time(s)
Russian Federation


Был удивлён отсутствием альбома на форуме, он раньше точно выкладывался. Вроде бы. Может быть. Музыкально сабж на пятерку.
Go to the top of the page
  Insert nick Quick quote
+Quote Post
post Jul 12 2019, 09:25:43
Post #3

Ёлд ХеллоВяйне
Group Icon
Group: V.I.P
Posts: 28,587
Releases: 133
From: Питер
On Forums: 13 years 2 months
Thanks: 16388 time(s)
Russian Federation


QUOTE(TDM @ 11th July 2019 - 18:42:39) *
10. Ya La Blu Tibia 03:36


Хотелось бы в общих чертах понять, что товарищ имеет в виду.
Go to the top of the page
  Insert nick Quick quote
+Quote Post
post Jul 12 2019, 10:12:11
Post #4

Маньяк
**********
Group: Металариец
Posts: 1,475
Releases: 1
On Forums: 5 years 2 months
Thanks: 515 time(s)
Tajikistan


какую мысль пытаются донести посредством музыки?
Go to the top of the page
  Insert nick Quick quote
+Quote Post
post Jul 12 2019, 10:40:22
Post #5

Cultist
**************
Group: Металариец
Posts: 4,278
Releases: 1330
From: Koenigsberg
On Forums: 13 years 3 weeks
Thanks: 8644 time(s)
Russian Federation


Товарищ любит Антона, это же очевидно!


Thanks:
Go to the top of the page
  Insert nick Quick quote
+Quote Post
post Jul 12 2019, 11:43:26
Post #6

Ёлд ХеллоВяйне
Group Icon
Group: V.I.P
Posts: 28,587
Releases: 133
From: Питер
On Forums: 13 years 2 months
Thanks: 16388 time(s)
Russian Federation


Но любит ли товарища Антон?
Go to the top of the page
  Insert nick Quick quote
+Quote Post
post Jul 12 2019, 12:38:51
Post #7

Мегадобряк
**************
Group: Металариец
Posts: 5,124
Releases: 1266
From: Харьков, Украина
On Forums: 13 years 3 months
Thanks: 9381 time(s)
Ukraine


(IMG:https://www.shitpostbot.com/img/sourceimages/varg-vikernes-lets-find-out-5a3f5820bf4d5.jpeg)
Go to the top of the page
  Insert nick Quick quote
+Quote Post
post Jul 12 2019, 16:07:39
Post #8

hearer & reader
**************
Group: Металариец
Posts: 8,288
Releases: 113
From: Moscow
On Forums: 12 years 4 months
Thanks: 7885 time(s)
Russian Federation


Был точно тут такой альбом. Меня не впечатлил. Zero Hour его куда интереснее.
Go to the top of the page
  Insert nick Quick quote
+Quote Post
post Jul 12 2019, 16:10:21
Post #9

на аватаре не я
**************
Group: Металариец
Posts: 4,841
Releases: 7
From: "Самопровозглашенная ДНР" (с)
On Forums: 10 years 6 months
Thanks: 2344 time(s)
Russian Federation


Местами приятно для слуха. Но когда начинает бездумно поливать без остановки, хочется попросить его выключить гитару и не портить музыку.
Go to the top of the page
  Insert nick Quick quote
+Quote Post
post Jul 12 2019, 17:21:16
Post #10

21st Century Schizoid Man
**************
Group: Металариец
Posts: 6,203
Releases: 76
From: Moscow
On Forums: 11 years 8 months
Thanks: 4950 time(s)
Russian Federation


Не знаю, откуда брал. Но в коллекции у меня есть.

ЦИТАТА(AHBAnep @ Jul 12 2019, 18:07:39) *
Был точно тут такой альбом. Меня не впечатлил. Zero Hour его куда интереснее.

И + Cynthesis.
Go to the top of the page
  Insert nick Quick quote
+Quote Post

Reply to this topicStart new topic
1 User(s) are reading this topic (1 Guests and 0 Anonymous Users)
0 Members:

 



- Lo-Fi Version Support form
Copyrights and abuse reports form
Time is now: 23rd January 2020 - 05:32:51