Welcome Guest ( Log In | Register )

> Releases Upload / Добавление релизов

Добавить релиз тут / Click here to add release
Рекомендованные обменники / Recommended file shares

> Necroratory - III (2019), Black Metal
post Jul 11 2019, 17:28:53
Post #1

Правь статус, ####!111
**************
Group: Металариец
Posts: 18,179
Releases: 12292
From: Г.Харьков
On Forums: 7 years 3 months
Thanks: 207296 time(s)
Unknown


(IMG:https://metalarea.org/images/audiocovers/2019_Jul/acov_tid324237_thumb.jpg)

*Artist: Necroratory
*Album: III
*Year: 2019
*Genre: Black Metal
*Country: Hungary (IMG:https://metalarea.org/forum/style_images/flags/Hungary.png)
*Format: mp3@CBR320kbps
*Size: 110MB

Tracklist:
1. Exordium 02:25
2. Az eskü 04:05
3. I.N.R.I. 03:54
4. A vérvonal 06:00
5. Az érkezés 05:42
6. Ars Moriendi 04:08
7. Bomlás 05:26
8. Érintés 04:22
9. Vízió 03:25
10. Kultusz 07:04
******************************
Total playing time: 46:31




Extended info
Attila Maday Guitars (2010-present)
Ákos Fábián Vocals (2010-2015, 2016-present)
Balázs Pöcz Drums (2012-present)
See also: Clitgore, Gungnir, Paediatrician, ex-Baskíria, ex-Tenowar, ex-Teurgia, ex-The Konstellation


Technical info
(IMG:https://metalarea.org/images/spectrogram/2019_Jul/dec94f22c171919183c8c71d3b1f1c63.png)
Input File: 04 A Vérvonal.mp3
Channels : 2
Sample Rate : 44100
Precision : 16-bit
Duration : 00:06:00.93 = 15916881 samples = 27069.5 CDDA sectors
File Size : 14.8M
Bit Rate : 328k
Sample Encoding: MPEG audio (layer I, II or III)
Comments :
Title=A Vérvonal
Artist=Necroratory
Album=Iii.
Tracknumber=04
Year=2019
Genre=Black Metal



Register


Go to the top of the page
  Insert nick Quick quote
+Quote Post
 
Start new topic
Replies (1 - 3)
post Jul 12 2019, 10:26:13
Post #2

MDM-Thrash Metal
**************
Group: Металариец
Posts: 8,548
Releases: 565
From: Одесса
On Forums: 12 years 1 week
Thanks: 16603 time(s)
Ukraine


Очень неплохо, красиво и мелодично - как по мне так Melodic Black.
Go to the top of the page
  Insert nick Quick quote
+Quote Post
post Jul 13 2019, 07:36:40
Post #3

Правь статус, ####!111
**************
Group: Металариец
Posts: 2,558
Releases: 7
From: Dnipro
On Forums: 11 years 1 month
Thanks: 750 time(s)
Ukraine


Хороший альбомчик, мелодичный и агрессивный.
Go to the top of the page
  Insert nick Quick quote
+Quote Post
post Jul 13 2019, 14:37:56
Post #4

Литр
*
Group: Подсевший
Posts: 65
Releases: 0
From: Лыткарино
On Forums: 3 months 1 week
Thanks: 18 time(s)
Russian Federation


Примитивненько, не неплохо, приятно слушается. Хотя и несколько однообразно.
Go to the top of the page
  Insert nick Quick quote
+Quote Post

Reply to this topicStart new topic
2 User(s) are reading this topic (2 Guests and 0 Anonymous Users)
0 Members:

 



- Lo-Fi Version Support form
Copyrights and abuse reports form
Time is now: 23rd August 2019 - 09:41:46