Welcome Guest ( Log In | Register )

> Releases Upload / Добавление релизов

Добавить релиз тут / Click here to add release
Рекомендованные обменники / Recommended file shares

> Disowning - Human Cattle (2019), Old School Death Metal
post Jul 11 2019, 18:44:04
Post #1

Правь статус, ####!111
**************
Group: Металариец
Posts: 18,201
Releases: 12311
From: Г.Харьков
On Forums: 7 years 3 months
Thanks: 207566 time(s)
Unknown


(IMG:https://metalarea.org/images/audiocovers/2019_Jul/acov_tid324240_thumb.jpg)

*Artist: Disowning
*Album: Human Cattle
*Year: 2019
*Genre: Old School Death Metal
*Country: International (IMG:https://metalarea.org/forum/style_images/flags/International.png)
*Format: mp3@CBR320kbps
*Size: 91MB

Tracklist:
1. Ghost Area 04:11
2. Battle of Neverness 03:47
3. Another Piece in My Collection 04:24
4. Intoxicated by This Illusion 03:47
5. Suffocated by My Walls 03:49
6. The Servants of Chaos 03:37
7. Inner Emptiness 03:27
8. Alone on This Dark Path 04:44
9. Human Cattle 03:01
10. The Storm Before the Storm 05:01
******************************
Total playing time: 39:48




Extended info
France / Canada
Adrien Dieu Bass
Maxime Pironnet Drums
Jérôme Tourinan Guitars
Peb Guitars
Jesus Vocals


Technical info
(IMG:https://metalarea.org/images/spectrogram/2019_Jul/2ca675e001e46399226eb25336be922a.png)
Input File: 3 - Another Piece in my Collection.mp3
Channels : 2
Sample Rate : 44100
Precision : 16-bit
Duration : 00:04:24.30 = 11655410 samples = 19822.1 CDDA sectors
File Size : 10.7M
Bit Rate : 323k
Sample Encoding: MPEG audio (layer I, II or III)
Comments :
Title=Another Piece in my Collection
Artist=Disowning
Album=Human Cattle
Tracknumber=3
Year=2019
Genre=Rock/Metal
Discnumber=1



Register


Go to the top of the page
  Insert nick Quick quote
+Quote Post
 
Start new topic
Replies (1 - 9)
post Jul 11 2019, 21:39:50
Post #2

Правь статус, ####!111
**************
Group: Металариец
Posts: 18,201
Releases: 12311
From: Г.Харьков
On Forums: 7 years 3 months
Thanks: 207566 time(s)
Unknown


Cloud Mail 320
Register


Go to the top of the page
  Insert nick Quick quote
+Quote Post
post Jul 11 2019, 22:06:50
Post #3

MDM-Thrash Metal
**************
Group: Металариец
Posts: 8,564
Releases: 570
From: Одесса
On Forums: 12 years 1 week
Thanks: 16653 time(s)
Ukraine


Отменный альбом! Один из лучших в жанре в этом году!


Thanks:
Go to the top of the page
  Insert nick Quick quote
+Quote Post
post Jul 12 2019, 05:18:50
Post #4
BAN
Banned till
Aug 30 2019, 19:40:36



Неплохая сборная солянка из популярных дэтовых клише.
Go to the top of the page
  Insert nick Quick quote
+Quote Post
post Jul 12 2019, 07:45:24
Post #5

Два Литра
**
Group: Завсегдатай
Posts: 197
Releases: 0
On Forums: 12 years 3 months
Thanks: 108 time(s)
Russian Federation


слежу со времен прошлогодней ипихи. альбом не подкачал! надеюсь, что придут к успеху. нормальный зизитоп
Go to the top of the page
  Insert nick Quick quote
+Quote Post
post Jul 12 2019, 16:29:41
Post #6

Сталин придёт за тобой...
***********
Group: Металариец
Posts: 1,645
Releases: 0
From: Беларусь, Минск
On Forums: 12 years 1 month
Thanks: 779 time(s)
Belarus


Дэс как дэс, почти и не олдскул, польского типа.
Go to the top of the page
  Insert nick Quick quote
+Quote Post
post Jul 12 2019, 18:11:50
Post #7

Crush The Enemies
**************
Group: Металариец
Posts: 4,219
Releases: 0
From: Moscow
On Forums: 9 years 11 months
Thanks: 2383 time(s)
Russian Federation



Отменная подача гроула и его тембр являются украшением релиза с отлично подвывающими морбидовскими гитарками,хорошим драйвом,не дающим заскучать и мягким,подпружиненным саундом. (IMG:style_emoticons/default/9.gif)

P.S Весьма и весьма НЕПЛОХО! (IMG:style_emoticons/default/dwarf-1.gif) (IMG:style_emoticons/default/dwarf-1.gif) (IMG:style_emoticons/default/dwarf-1.gif)


Go to the top of the page
  Insert nick Quick quote
+Quote Post
post Jul 12 2019, 20:32:16
Post #8

Три Литра
***
Group: Завсегдатай
Posts: 265
Releases: 0
From: Kyiv
On Forums: 7 years 4 months
Thanks: 99 time(s)
Ukraine


Реально мидтемпово-скучно. Кача почти никакого.
Go to the top of the page
  Insert nick Quick quote
+Quote Post
post Jul 12 2019, 21:20:28
Post #9

Правь статус, ####!111
**************
Group: Металариец
Posts: 18,201
Releases: 12311
From: Г.Харьков
On Forums: 7 years 3 months
Thanks: 207566 time(s)
Unknown


FLAC (Tracks) 296 mb
Register


Go to the top of the page
  Insert nick Quick quote
+Quote Post
post Jul 16 2019, 19:29:41
Post #10

Литр
*
Group: Подсевший
Posts: 85
Releases: 0
From: минск сити
On Forums: 10 years 1 month
Thanks: 4 time(s)
Belarus


для фона в машину отлично катит.. спасибо.
Go to the top of the page
  Insert nick Quick quote
+Quote Post

Reply to this topicStart new topic
2 User(s) are reading this topic (2 Guests and 0 Anonymous Users)
0 Members:

 



- Lo-Fi Version Support form
Copyrights and abuse reports form
Time is now: 24th August 2019 - 14:42:31