Welcome Guest ( Log In | Register )

> Releases Upload / Добавление релизов

Добавить релиз тут / Click here to add release
Рекомендованные обменники / Recommended file shares

 
Reply to this topicStart new topic
> Scumripper - All Veins Blazing (2019), Black/Thrash/Death Metal
post Jul 11 2019, 19:16:02
Post #1

𝕻𝕬𝕹𝕬𝕮𝕰𝕬
******
Group: Металариец
Posts: 682
Releases: 381
On Forums: 7 years 1 month
Thanks: 5608 time(s)
Unknown


(IMG:http://metalarea.org/images/audiocovers/2019_Jul/acov_tid324241_thumb.jpg)

*Artist: Scumripper
*Album: All Veins Blazing
*Year: 2019
*Genre: Black/Thrash/Death Metal
*Country: Finland (IMG:http://metalarea.org/forum/style_images/flags/Finland.png)
*Format: mp3@CBR320kbps
*Size: 70MB

Tracklist:
1. Colonel Gator 01:53
2. Slay.Scum.Day 01:50
3. Nuns 'N' Doses 01:46
4. Your Local Shriner 01:15
5. Rock The Bone 00:54
6. Three Morbid Magi 01:50
7. Mask Merchant 02:21
8. All Veins Blazing 01:52
9. Eight Rapes A Week 02:35
10. Put A Boot To His Cock 00:34
11. Death Wish 02:39
12. Shit Needle Crown 02:04
13. Burning Of The Midnight Tramp 02:24
14. Scumripper 01:52
15. Cum Killa 02:12
16. Run To The Pills 00:52
17. Gutter Heights 02:15
******************************
Total playing time: 31:08



Extended info
Tracks 12 - 17 are the "Scumripper" EP that is included as bonus.


Technical info
(IMG:http://metalarea.org/images/spectrogram/2019_Jul/a71980c062444b81f026fc10dc80c5f9.png)
Input File: 01 - Colonel Gator.mp3
Channels : 2
Sample Rate : 44100
Precision : 16-bit
Duration : 00:01:54.01 = 5027709 samples = 8550.53 CDDA sectors
File Size : 4.56M
Bit Rate : 320k
Sample Encoding: MPEG audio (layer I, II or III)
Comments :
Title=Colonel Gator
Artist=Scumripper
Album=All Veins Blazing
Tracknumber=1
Year=2019
Genre=Black/Thrash/Death Metal



Register


Go to the top of the page
  Insert nick Quick quote
+Quote Post

Reply to this topicStart new topic
1 User(s) are reading this topic (1 Guests and 0 Anonymous Users)
0 Members:

 



- Lo-Fi Version Support form
Copyrights and abuse reports form
Time is now: 22nd July 2019 - 06:55:21