Welcome Guest ( Log In | Register )

> Releases Upload / Добавление релизов

Добавить релиз тут / Click here to add release
Рекомендованные обменники / Recommended file shares

> Lycanthropus - Blood & War (2019), Black Metal
post Jul 11 2019, 20:05:30
Post #1

Cultist
**************
Group: Металариец
Posts: 3,720
Releases: 1216
From: Koenigsberg
On Forums: 12 years 6 months
Thanks: 6873 time(s)
Russian Federation


(IMG:http://metalarea.org/images/audiocovers/2019_Jul/acov_tid324254_thumb.jpg)

*Artist: Lycanthropus
*Album: Blood & War
*Year: 2019
*Genre: Black Metal
*Country: Sweden (IMG:http://metalarea.org/forum/style_images/flags/Sweden.png)
*Format: mp3@CBR320kbps
*Size: 76MB

Tracklist:
1. Intro 00:38
2. Let It Begin 02:45
3. Blood & War 03:15
4. Moon of the Wolf 02:58
5. Massacre 02:03
6. 1000 Years 04:10
7. Kick & Kill 01:45
8. Betrayal 04:05
9. Berserker 04:53
10. Viking 01:55
11. The Wolfpack 04:20
******************************
Total playing time: 32:47



Extended info
Годнота!


Technical info
(IMG:http://metalarea.org/images/spectrogram/2019_Jul/b60806ad3b1eab04f7ab79850a049664.png)
Input File: 05 - Massacre.mp3
Channels : 2
Sample Rate : 44100
Precision : 16-bit
Duration : 00:02:03.46 = 5444630 samples = 9259.57 CDDA sectors
File Size : 4.98M
Bit Rate : 323k
Sample Encoding: MPEG audio (layer I, II or III)
Comments :
Title=Massacre
Artist=Lycanthropus
Album=Blood & War
Tracknumber=5
Year=2019
Genre=Black Metal



Register


Go to the top of the page
  Insert nick Quick quote
+Quote Post
 
Start new topic
Replies (1 - 6)
post Jul 12 2019, 09:15:49
Post #2

Cultist
**************
Group: Металариец
Posts: 3,720
Releases: 1216
From: Koenigsberg
On Forums: 12 years 6 months
Thanks: 6873 time(s)
Russian Federation


Задорная, местами диско, но довольно однотипная жужжалка. В целом, хорошо.
Go to the top of the page
  Insert nick Quick quote
+Quote Post
post Jul 12 2019, 10:25:40
Post #3

кручу наждак
**************
Group: Металариец
Posts: 3,949
Releases: 96
From: Самара
On Forums: 9 years 2 months
Thanks: 2936 time(s)
Russian Federation


ЦИТАТА(TDM @ Jul 12 2019, 09:15:49) *
довольно однотипная жужжалка.

Наоборот, в рамках олдскульного блэка альбом максимально разнообразен. Тут есть все - и долба, и среднетемповые вещи, и панковский расколбас. Разве что акустической баллады не хватает до полного комплекта.
Go to the top of the page
  Insert nick Quick quote
+Quote Post
post Jul 12 2019, 10:38:46
Post #4

Cultist
**************
Group: Металариец
Posts: 3,720
Releases: 1216
From: Koenigsberg
On Forums: 12 years 6 months
Thanks: 6873 time(s)
Russian Federation


ЦИТАТА(judaz @ Jul 12 2019, 12:25:40) *
Наоборот, в рамках олдскульного блэка альбом максимально разнообразен. Тут есть все - и долба, и среднетемповые вещи, и панковский расколбас. Разве что акустической баллады не хватает до полного комплекта.

Акустика на первом альбоме (IMG:style_emoticons/default/bye.gif)
Я бы сказал внутри композиций разнообразия не хватает
Go to the top of the page
  Insert nick Quick quote
+Quote Post
post Jul 12 2019, 10:42:47
Post #5

кручу наждак
**************
Group: Металариец
Posts: 3,949
Releases: 96
From: Самара
On Forums: 9 years 2 months
Thanks: 2936 time(s)
Russian Federation


ЦИТАТА(TDM @ Jul 12 2019, 10:38:46) *
Акустика на первом альбоме (IMG:style_emoticons/default/bye.gif)

Да, как раз слушаю его. (IMG:style_emoticons/default/9.gif)

ЦИТАТА(TDM @ Jul 12 2019, 10:38:46) *
Я бы сказал внутри композиций разнообразия не хватает

Ну дык а какое особое разнообразие может быть в старошкольном блэке? Ранние Иммортал с Дарктроном могли целую песню на одном аккорде пробренчать. (IMG:style_emoticons/default/1488.gif)
Go to the top of the page
  Insert nick Quick quote
+Quote Post
post Jul 12 2019, 10:54:21
Post #6

Cultist
**************
Group: Металариец
Posts: 3,720
Releases: 1216
From: Koenigsberg
On Forums: 12 years 6 months
Thanks: 6873 time(s)
Russian Federation


Верно, если следовать канону старой школы, то все очень добротно и хорошо.
Но я сам по себе предпочитаю посложнее и поинтереснее.
Go to the top of the page
  Insert nick Quick quote
+Quote Post
post Yesterday, 10:18:54
Post #7

Два Литра
**
Group: Завсегдатай
Posts: 112
Releases: 0
On Forums: 1 year 6 days
Thanks: 146 time(s)
Russian Federation


Отличный альбом, с каноничными идеями, но воспринимается незаезженно и с энтузиазмом. Тут наследие и Darkthrone и Absurd, но цельно, без разрывов, да ещё в рамках своей манеры. Казалось бы, рецепт прост, но насколько органично звучит.
Go to the top of the page
  Insert nick Quick quote
+Quote Post

Reply to this topicStart new topic
2 User(s) are reading this topic (2 Guests and 0 Anonymous Users)
0 Members:

 



- Lo-Fi Version Support form
Copyrights and abuse reports form
Time is now: 22nd July 2019 - 07:32:00