Welcome Guest ( Log In | Register )

> Lycanthropus - Lycanthropus (2019), Black Metal
post Jul 11 2019, 20:16:04
Post #1

Cultist
**************
Group: Металариец
Posts: 3,806
Releases: 1224
From: Koenigsberg
On Forums: 12 years 8 months
Thanks: 7424 time(s)
Russian Federation


(IMG:http://metalarea.org/images/audiocovers/2019_Jul/acov_tid324276_thumb.jpg)

*Artist: Lycanthropus
*Album: Lycanthropus
*Year: 2019
*Genre: Black Metal
*Country: Sweden (IMG:http://metalarea.org/forum/style_images/flags/Sweden.png)
*Format: mp3@CBR320kbps
*Size: 94MB

Tracklist:
1. Warwolf 03:14
2. Rise 02:51
3. The Bavarian Executioner 02:06
4. Pale Beauty 01:09
5. Of Glory 04:31
6. Dagger 02:21
7. White Desert 03:54
8. Death March 02:22
9. Hammer 03:54
10. Heroes 05:20
11. Battlefields 03:21
12. Lycanthropus 02:08
13. Wolf Song 02:51
******************************
Total playing time: 40:02



Technical info
(IMG:http://metalarea.org/images/spectrogram/2019_Jul/9b776f3f7be032bddb53b48c63ba9bb0.png)
Input File: 07 - White Desert.mp3
Channels : 2
Sample Rate : 44100
Precision : 16-bit
Duration : 00:03:55.06 = 10366234 samples = 17629.6 CDDA sectors
File Size : 9.52M
Bit Rate : 324k
Sample Encoding: MPEG audio (layer I, II or III)
Comments :
Title=White Desert
Artist=Lycanthropus
Album=Lycanthropus
Tracknumber=7
Year=2019
Genre=Black Metal



Register


Go to the top of the page
  Insert nick Quick quote
+Quote Post
 
Start new topic
Replies (1 - 6)
post Jul 12 2019, 11:10:41
Post #2

кручу наждак
**************
Group: Металариец
Posts: 4,036
Releases: 97
From: Самара
On Forums: 9 years 4 months
Thanks: 3070 time(s)
Russian Federation


Отличный дебют, строго по олдскулу.


Thanks:
Go to the top of the page
  Insert nick Quick quote
+Quote Post
post Jul 12 2019, 15:03:33
Post #3

Cultist
**************
Group: Металариец
Posts: 3,806
Releases: 1224
From: Koenigsberg
On Forums: 12 years 8 months
Thanks: 7424 time(s)
Russian Federation


Закрывашка ваще плясовая (IMG:style_emoticons/default/banana.gif) (IMG:style_emoticons/default/banana.gif) (IMG:style_emoticons/default/banana.gif)
Go to the top of the page
  Insert nick Quick quote
+Quote Post
post Jul 16 2019, 23:09:28
Post #4

Литр
*
Group: Подсевший
Posts: 67
Releases: 0
From: Россия
On Forums: 5 years 8 months
Thanks: 2 time(s)
Russian Federation


Отлично
Go to the top of the page
  Insert nick Quick quote
+Quote Post
post Jul 27 2019, 15:10:18    Сейчас играет: Belliciste - The Crimson Sign
Post #5

antithesis
**************
Group: Металариец
Posts: 2,798
Releases: 31
From: VRN
On Forums: 9 years 4 months
Thanks: 1636 time(s)
Russian Federation


mirror, pls
Go to the top of the page
  Insert nick Quick quote
+Quote Post
post Jul 27 2019, 16:03:02
Post #6

the faceless one
Group Icon
Group: S-moderation team
Posts: 9,229
Releases: 1885
On Forums: 11 years 1 month
Thanks: 111052 time(s)
Russian Federation


Оба альбома Blood & War / Lycanthropus одним архивом:
Register


Thanks:
Go to the top of the page
  Insert nick Quick quote
+Quote Post
post Jul 27 2019, 21:29:18
Post #7

Литр
*
Group: Подсевший
Posts: 93
Releases: 0
From: Лыткарино
On Forums: 4 months 1 week
Thanks: 23 time(s)
Russian Federation


Пустейшая херота.
Go to the top of the page
  Insert nick Quick quote
+Quote Post

Reply to this topicStart new topic
1 User(s) are reading this topic (1 Guests and 0 Anonymous Users)
0 Members:

 



- Lo-Fi Version Support form
Copyrights and abuse reports form
Time is now: 22nd September 2019 - 21:58:05