Welcome Guest ( Log In | Register )

> Releases Upload / Добавление релизов

Добавить релиз тут / Click here to add release
Рекомендованные обменники / Recommended file shares

> Ktharsys - Tras Las Huellas (2019), Heavy/Power Metal
post Jul 11 2019, 21:11:11
Post #1

Правь статус, ####!111
**************
Group: Металариец
Posts: 17,800
Releases: 12065
From: Г.Харьков
On Forums: 7 years 2 months
Thanks: 202689 time(s)
Unknown


(IMG:https://metalarea.org/images/audiocovers/2019_Jul/acov_tid324277_thumb.jpg)

*Artist: Ktharsys
*Album: Tras Las Huellas
*Year: 2019
*Genre: Heavy/Power Metal
*Country: Venezuela (IMG:https://metalarea.org/forum/style_images/flags/Venezuela.png)
*Format: mp3@CBR320kbps
*Size: 115MB

Tracklist:
1. Tu Ausencia
2. ¿Sueño o Realidad?
3. Ángel Guardián
4. Camino Sin Tí
5. Libertad
6. Ktharsys
7. Retorna A Mi Ser
8. Caminar Al Vacío
9. Eres La Guía
10. Recuerdos
11. Tras Las Huellas
******************************
Total playing time: 48:37



Extended info
Moises Vera: Voz
Leandro Melendez: Guitarra
Martha Yánez: Guitarra
Luis Rivas: Bateria
Jorge Álvarez: Bajo y Secuencias


Technical info
(IMG:https://metalarea.org/images/spectrogram/2019_Jul/8d81656dc14616ea6509fa988452042a.png)
Input File: 04 Camino Sin Ti.mp3
Channels : 2
Sample Rate : 44100
Precision : 16-bit
Duration : 00:04:43.84 = 12517168 samples = 21287.7 CDDA sectors
File Size : 11.6M
Bit Rate : 327k
Sample Encoding: MPEG audio (layer I, II or III)
Comments :
Title=Camino Sin Ti
Artist=Ktharsys
Album=Tras Las Huellas
Tracknumber=04
Year=2019



Register


Go to the top of the page
  Insert nick Quick quote
+Quote Post
 
Start new topic
Replies (1 - 1)
post Jul 11 2019, 21:53:11
Post #2

MDM-Thrash Metal
**************
Group: Металариец
Posts: 8,356
Releases: 499
From: Одесса
On Forums: 11 years 11 months
Thanks: 15838 time(s)
Ukraine




Go to the top of the page
  Insert nick Quick quote
+Quote Post

Reply to this topicStart new topic
2 User(s) are reading this topic (2 Guests and 0 Anonymous Users)
0 Members:

 



- Lo-Fi Version Support form
Copyrights and abuse reports form
Time is now: 22nd July 2019 - 07:33:22