Welcome Guest ( Log In | Register )

> Releases Upload / Добавление релизов

Добавить релиз тут / Click here to add release
Рекомендованные обменники / Recommended file shares

> Red Scalp - Lost Ghosts (2017), Stoner/Doom Metal/Rock
post Jul 11 2019, 22:03:41
Post #1

Group: Дух
Posts: 10
Releases: 5
On Forums: 6 years 1 month
Thanks: 40 time(s)
Colombia


(IMG:https://metalarea.org/images/audiocovers/2019_Jul/acov_tid324278_thumb.jpg)

*Artist: Red Scalp
*Album: Lost Ghosts
*Year: 2017
*Genre: Stoner/Doom Metal/Rock
*Country: Poland (IMG:https://metalarea.org/forum/style_images/flags/Poland.png)
*Format: mp3@CBR320kbps
*Size: 87MB

Tracklist:
1. Portal 04:46
2. Faces 06:30
3. Lost Ghost 09:43
4. Mantra Bufala 08:34
5. With the Wind 08:33
******************************
Total playing time: 38:06

(IMG:https://metalarea.org/images/youtube.png)

Technical info
(IMG:https://metalarea.org/images/spectrogram/2019_Jul/ea0e46adcc411349408e411632206084.png)
Input File: 01. Portal.mp3
Channels : 2
Sample Rate : 44100
Precision : 16-bit
Duration : 00:04:46.48 = 12633636 samples = 21485.8 CDDA sectors
File Size : 11.6M
Bit Rate : 323k
Sample Encoding: MPEG audio (layer I, II or III)
Comments :
Title=Portal
Artist=Red Scalp
Album=Lost Ghosts
Tracknumber=1
Year=2017
Genre=Stoner Rock/Metal



Register


Go to the top of the page
  Insert nick Quick quote
+Quote Post
 
Start new topic
Replies (1 - 1)
post Jul 12 2019, 07:07:00
Post #2

hearer & reader
**************
Group: Металариец
Posts: 7,905
Releases: 103
From: Moscow
On Forums: 11 years 10 months
Thanks: 7416 time(s)
Russian Federation


Go to the top of the page
  Insert nick Quick quote
+Quote Post

Reply to this topicStart new topic
2 User(s) are reading this topic (2 Guests and 0 Anonymous Users)
0 Members:

 



- Lo-Fi Version Support form
Copyrights and abuse reports form
Time is now: 22nd July 2019 - 06:46:18